当前位置: 首页 >> 港台电影 >> 公子多情[国粤语配音/中文字幕].The.Greatest.Lover.1988.1080p.BluRay.x265.10bit.DD.2.0.2Audio 5.17GB >> 正文

公子多情[国粤语配音/中文字幕].The.Greatest.Lover.1988.1080p.BluRay.x265.10bit.DD.2.0.2Audio 5.17GB

2021年10月01日 14:01:48     电影发布:来源于网络     电影分类:港台电影     评论(0)    

公子多情[国粤语配音/中文字幕].The.Greatest.Lover.1988.1080p.BluRay.x265.10bit.DD.2.0.2Audio 5.17GB 爱情片 喜剧片 港台电影  第1张

◎译 名 公子多情 / The Greatest Lover

◎年 代 1988

◎产 地 中国香港

◎类 别 喜剧 / 爱情

◎语 言 粤语

◎上映日期 1988-07-30

◎IMDb链接 https://www.imdb.com/title/tt0095236/

◎豆瓣评分 7.0/10 (5030人评价)

◎豆瓣链接 https://movie.douban.com/subject/1304813/

◎片 长 115分钟

◎导 演 霍耀良 Clarence Fok Yiu-leung (id:1283918)

◎编 剧 麦当雄 Johnny Mak (id:1290775)

萧若元 Stephen Siu (id:1297721)

◎演 员 周润发 Yun-Fat Chow (id:1044899)

梅艳芳 Anita Mui (id:1047976)

利智 Nina Li Chi (id:1124360)

曾志伟 Eric Tsang (id:1002862)

李美凤 Elizabeth Lee (id:1051304)

王青 Ching Wong (id:1275150)

黄智强 Ji Keung Wong (id:1431206)

王晶 Jing Wong (id:1274331)

吴康宁 Hong-Ning Ng (id:1447771)

麦当雄 Johnny Mak (id:1290775)

西瓜刨 Gwa-pau Sai (id:1220481)

王小凤 Pauline Wong (id:1275089)

成奎安 Fui-On Shing (id:1141665)

吴君如 Sandra Ng (id:1127819)

元华 Wah Yuen (id:1050240)

陈永良 Wing-leung Chan (id:1363084)

◎标 签 周润发 / 香港 / 喜剧 / 梅艳芳 / 香港电影 / 曾志伟 / 1988 / 搞笑

◎简 介

富商施头(王青 饰)其貌不扬,在某次名流聚会上被美女Lychee(利智 饰)戏弄,怀恨在心,并扬言报复。偶然机会,施头遇见来自大陆的前进发(周润发 饰)、高佬伟(曾志伟 饰)和傻鸡(成奎安 饰)。他灵机一动,希望让前进发假扮贵公子勾引Lychee,并请出仪表教练Anita(梅艳芳 饰)对其进行贵族礼仪训练。

苦于在香港不见出头之日,三人一口应承下来。经过一段时间的魔鬼训练,前进发在随后举行的印度弱智儿童基金晚宴上大出风头,将Lychee在内的一干美女迷得神魂颠倒,甚至连亲手将其调教出来的Anita也不能自已……

  1. ##### MediaInfo ######

  2. General

  3. Unique ID : 207052984401559441439149832756887546444 (0x9BC4F44B42766C4DD7E2EAB1BF1BEA4C)

  4. Complete name : The.[email protected]BBQDDQ.COM.mkv

  5. Format : Matroska

  6. Format version : Version 4

  7. File size : 5.17 GiB

  8. Duration : 2 h 0 min

  9. Overall bit rate : 6 122 kb/s

  10. Encoded date : UTC 2021-09-30 03:05:16

  11. Writing application : mkvmerge v55.0.0 ('Waiting For Space') 64-bit

  12. Writing library : libebml v1.4.2 + libmatroska v1.6.4


  13. Video

  14. ID : 1

  15. Format : HEVC

  16. Format/Info : High Efficiency Video Coding

  17. Format profile : Main [email protected]@Main

  18. Codec ID : V_MPEGH/ISO/HEVC

  19. Duration : 2 h 0 min

  20. Bit rate : 5 301 kb/s

  21. Width : 1 920 pixels

  22. Height : 1 036 pixels

  23. Display aspect ratio : 1.85:1

  24. Frame rate mode : Constant

  25. Frame rate : 24.000 FPS

  26. Color space : YUV

  27. Chroma subsampling : 4:2:0

  28. Bit depth : 10 bits

  29. Bits/(Pixel*Frame) : 0.111

  30. Stream size : 4.47 GiB (87%)

  31. Writing library : x265 3.4+1-g07e3381df+31:[Windows][GCC 10.1.0][64 bit] Yuuki 10bit+8bit+12bit

  32. Encoding settings : rc=crf / crf=17.0000 / qcomp=0.70 / qpstep=4 / stats-write=0 / stats-read=0 / no-lossless / no-cu-lossless / aq-mode=3 / aq-strength=0.70 / cbqpoffs=0 / crqpoffs=0 / ipratio=1.40 / pbratio=1.30 / psy-rd=2.00 / psy-rdoq=0.00 / deblock=0:0 / ref=6 / limit-refs=1 / no-limit-modes / bframes=8 / b-adapt=2 / bframe-bias=0 / b-pyramid / b-intra / weightp / weightb / min-keyint=24 / max-keyint=240 / rc-lookahead=24 / gop-lookahead=0 / NTMzNTQ=uuDQuD2mJt9fsCf / scenecut=40 / hist-scenecut=0 / radl=0 / max-cu-size=64 / min-cu-size=8 / me=3 / subme=7 / merange=48 / rdoq-level=0 / rd=4 / rdpenalty=0 / dynamic-rd=0.00 / no-rd-refine / ----- / cutree / sao / no-rect / no-amp / no-open-gop / wpp / no-pmode / no-pme / no-psnr / no-ssim / nr-intra=0 / nr-inter=0 / no-constrained-intra / no-strong-intra-smoothing / max-tu-size=32 / tu-inter-depth=1 / tu-intra-depth=1 / limit-tu=0 / qg-size=32 / qpmax=69 / qpmin=0 / ----- / cpuid=533541111039 / frame-threads=4 / numa-pools=+ / log-level=2 / input-csp=1 / input-res=1920x1036 / interlace=0 / level-idc=0 / high-tier=1 / uhd-bd=0 / no-allow-non-conformance / repeat-headers / aud / no-hrd / info / hash=0 / no-temporal-layers / lookahead-slices=0 / no-splice / no-intra-refresh / no-ssim-rd / signhide / no-tskip / max-merge=3 / temporal-mvp / no-frame-dup / no-hme / no-analyze-src-pics / no-sao-non-deblock / selective-sao=4 / early-skip / rskip / no-fast-intra / no-tskip-fast / no-splitrd-skip / zone-count=0 / no-strict-cbr / no-rc-grain / no-const-vbv / sar=0 / overscan=0 / videoformat=5 / range=0 / colorprim=2 / transfer=2 / colormatrix=2 / chromaloc=0 / display-window=0 / cll=0,0 / min-luma=0 / max-luma=1023 / log2-max-poc-lsb=8 / vui-timing-info / vui-hrd-info / slices=1 / no-opt-qp-pps / no-opt-ref-list-length-pps / no-multi-pass-opt-rps / scenecut-bias=0.05 / hist-threshold=0.01 / no-opt-cu-delta-qp / no-aq-motion / no-hdr10 / no-hdr10-opt / no-dhdr10-opt / no-idr-recovery-sei / analysis-reuse-level=0 / analysis-save-reuse-level=0 / analysis-load-reuse-level=0 / scale-factor=0 / refine-intra=0 / refine-inter=0 / refine-mv=1 / refine-ctu-distortion=0 / no-limit-sao / ctu-info=0 / no-lowpass-dct / refine-analysis-type=0 / copy-pic=1 / max-ausize-factor=1.0 / no-dynamic-refine / no-single-sei / no-hevc-aq / no-svt / no-field / qp-adaptation-range=1.00 / no-scenecut-aware-qpconformance-window-offsets / right=0 / bottom=0 / NTMzNTQ= / decoder-max-rate=0

  33. Default : Yes

  34. Forced : No


  35. Audio #1

  36. ID : 2

  37. ID in the original source medium : 4352 (0x1100)

  38. Format : AC-3

  39. Format/Info : Audio Coding 3

  40. Commercial name : Dolby Digital

  41. Codec ID : A_AC3

  42. Duration : 2 h 0 min

  43. Bit rate mode : Constant

  44. Bit rate : 384 kb/s

  45. Channel(s) : 2 channels

  46. Channel layout : L R

  47. Sampling rate : 48.0 kHz

  48. Frame rate : 31.250 FPS (1536 SPF)

  49. Compression mode : Lossy

  50. Stream size : 332 MiB (6%)

  51. Title : Cantonese

  52. Language : Chinese

  53. Service kind : Complete Main

  54. Default : Yes

  55. Forced : No

  56. Original source medium : Blu-ray


  57. Audio #2

  58. ID : 3

  59. ID in the original source medium : 4353 (0x1101)

  60. Format : AC-3

  61. Format/Info : Audio Coding 3

  62. Commercial name : Dolby Digital

  63. Codec ID : A_AC3

  64. Duration : 2 h 0 min

  65. Bit rate mode : Constant

  66. Bit rate : 384 kb/s

  67. Channel(s) : 2 channels

  68. Channel layout : L R

  69. Sampling rate : 48.0 kHz

  70. Frame rate : 31.250 FPS (1536 SPF)

  71. Compression mode : Lossy

  72. Stream size : 332 MiB (6%)

  73. Title : Mandarin

  74. Language : Chinese

  75. Service kind : Complete Main

  76. Default : No

  77. Forced : No

  78. Original source medium : Blu-ray


  79. Text #1

  80. ID : 4

  81. ID in the original source medium : 4609 (0x1201)

  82. Format : PGS

  83. Muxing mode : zlib

  84. Codec ID : S_HDMV/PGS

  85. Codec ID/Info : Picture based subtitle format used on BDs/HD-DVDs

  86. Duration : 1 h 57 min

  87. Bit rate : 45.8 kb/s

  88. Count of elements : 3899

  89. Stream size : 38.4 MiB (1%)

  90. Title : chs

  91. Language : Chinese

  92. Default : Yes

  93. Forced : No

  94. Original source medium : Blu-ray


  95. Text #2

  96. ID : 5

  97. ID in the original source medium : 4608 (0x1200)

  98. Format : PGS

  99. Muxing mode : zlib

  100. Codec ID : S_HDMV/PGS

  101. Codec ID/Info : Picture based subtitle format used on BDs/HD-DVDs

  102. Duration : 1 h 57 min

  103. Bit rate : 46.8 kb/s

  104. Count of elements : 3899

  105. Stream size : 39.2 MiB (1%)

  106. Title : cht

  107. Language : Chinese

  108. Default : No

  109. Forced : No

  110. Original source medium : Blu-ray


  111. Text #3

  112. ID : 6

  113. ID in the original source medium : 4610 (0x1202)

  114. Format : PGS

  115. Muxing mode : zlib

  116. Codec ID : S_HDMV/PGS

  117. Codec ID/Info : Picture based subtitle format used on BDs/HD-DVDs

  118. Duration : 1 h 57 min

  119. Bit rate : 63.0 kb/s

  120. Count of elements : 3899

  121. Stream size : 52.8 MiB (1%)

  122. Language : English

  123. Default : No

  124. Forced : No

  125. Original source medium : Blu-ray


  126. Menu

  127. 00:00:00.000 : en:第 01 章

  128. 00:11:52.541 : en:第 02 章

  129. 00:21:21.125 : en:第 03 章

  130. 00:32:42.208 : en:第 04 章

  131. 00:39:15.458 : en:第 05 章

  132. 00:50:11.083 : en:第 06 章

  133. 00:59:38.375 : en:第 07 章

  134. 01:12:01.458 : en:第 08 章

  135. 01:21:12.083 : en:第 09 章

  136. 01:30:19.958 : en:第 10 章

  137. 01:40:48.958 : en:第 11 章

  138. 01:54:09.833 : en:第 12 章




复制代码



文件下载


除非特别注明,本文『公子多情[国粤语配音/中文字幕].The.Greatest.Lover.1988.1080p.BluRay.x265.10bit.DD.2.0.2Audio 5.17GB』来源于互联网机器人自动抓取,非本站原创。 浮游电影网不对本文拥有版权,如有侵犯,请联系邮箱:fuyouu#yandex.com[#换成@]投诉。我们会在15个工作日内删除。 但烦请转载时请标明出处:“本文转载于『浮游电影网』,原文地址:https://www.fuyouu.com/14680.html

评论吧骚年!

发表你的见解   

昵称*

E-mail*(建议输入,以便收到博主回复的提示邮件)

验证码*

您可以使用eMule或eMule Mod(Windows)、aMule(Win、Linux、Mac)等软件下载eD2k链接。。
eMule收藏集(.emulecollection)文件是您选中的所有链接的列表文件。eMule可以直接下载它们。
按住SHIFT键选择可以选中多个选择框。
可用文件名和大小选择器来选择文件。
文件名选择器帮您根据文件名称或后缀来选择文件。不分大小写。
符号使用:
和:空格( )、+
不包含:-
或:|
转义:一对英文引号("");
匹配开头:^
匹配结尾:$
例如:
选中所有名称中包含有“eMule”或“0.49c”字眼,但不包含有“exe”字眼的:emule|0.49c -exe
选中所有名称的开头是“eMule”,结尾是“0.49c”的:^emule 0.49c$
选中所有名称中带有“eMule 0.49c”的(必须是“eMule 0.49c”,中间没有别的字符,不能是“eMule fake 0.49c”),需要转义:"emule 0.49c"
大小选择器帮您根据文件大小选择文件。