当前位置: 首页 >> 国产电影 >> 诡镇[国语配音/中文字幕].The.Apostles.2014.2160p.WEB-DL.H265.DD2.0 18.28GB >> 正文

诡镇[国语配音/中文字幕].The.Apostles.2014.2160p.WEB-DL.H265.DD2.0 18.28GB

2021年10月01日 14:00:28     电影发布:来源于网络     电影分类:国产电影     评论(0)    

诡镇[国语配音/中文字幕].The.Apostles.2014.2160p.WEB DL.H265.DD2.0 18.28GB 悬疑片 惊悚片 剧情片 国产电影  第1张

◎译 名 诡镇 / 异刑 / 险路勿近 / The Apostles

◎年 代 2014

◎产 地 中国大陆

◎类 别 剧情 / 悬疑 / 惊悚

◎语 言 汉语普通话

◎上映日期 2014-01-17(中国大陆)

◎IMDb链接 https://www.imdb.com/title/tt5295548/

◎豆瓣评分 3.5/10 (9684人评价)

◎豆瓣链接 https://movie.douban.com/subject/20472818/

◎片 长 91分钟

◎导 演 钱人豪 Jen-hao Chie (id:1315203)

◎编 剧 钱人豪 Jen-hao Chie (id:1315203)

王骏 Jun Wang (id:1336670)

◎演 员 何超仪 Josie Ho (id:1014212)

夏凡 Fan Xia (id:1317407)

谢承均 Angus Hsieh (id:1334739)

周楚濋 Chu-chu Zhou (id:1275152)

大庆 Da Qing (id:1333989)

林雪 Suet Lam (id:1274279)

太保 Po Tai (id:1312993)

林子聪 Tze Chung Lam (id:1314402)

◎标 签 惊悚 / 恐怖 / 悬疑 / 科幻 / 中国电影 / 中国 / 2014 / 钱人豪

◎简 介

容颜憔悴的女作家路云(何超仪 饰)为了撰写最新的小说精疲力竭,她发现自己的记忆变差,许多时候依靠药物来稳定自己的精神状态。近一段时间,路云的情况似乎有所恶化,她经常被一个诡异梦境所困扰,为此几近崩溃。这日一早,噩梦醒来的路云打电话给在外地公干的老公张世权(谢承均 饰),丈夫给她以安慰,并告知当天搭乘飞机回家。而电话的另一头,张世权刚和另一位女子刘伶结束缠绵。在出版社和编辑洽谈时候,路云惊悉丈夫的飞机失事的噩耗。她匆匆赶往事故处理现场,结果偶遇刘伶的丈夫韩斌(夏凡 饰)。

韩斌从妻子的遗物中发现陌生男人的手机,她千方百计试图弄清妻子生前的秘密。通过手机卡,韩斌和路云建立联系,他们也将携手揭开另一半可以隐藏的秘密……

  1. ##### MediaInfo ######

  2. General

  3. Complete name : 诡镇[email protected]

  4. Format : MPEG-4

  5. Format profile : Base Media

  6. Codec ID : isom (isom/iso2/mp41)

  7. File size : 18.3 GiB

  8. Duration : 1 h 26 min

  9. Overall bit rate : 30.1 Mb/s

  10. Writing application : OurTV Multimedia Platform


  11. Video

  12. ID : 1

  13. Format : HEVC

  14. Format/Info : High Efficiency Video Coding

  15. Format profile : [email protected]@High

  16. Codec ID : hev1

  17. Codec ID/Info : High Efficiency Video Coding

  18. Duration : 1 h 26 min

  19. Bit rate : 29.7 Mb/s

  20. Width : 3 840 pixels

  21. Height : 2 160 pixels

  22. Display aspect ratio : 16:9

  23. Frame rate mode : Constant

  24. Frame rate : 25.000 FPS

  25. Color space : YUV

  26. Chroma subsampling : 4:2:0

  27. Bit depth : 8 bits

  28. Bits/(Pixel*Frame) : 0.143

  29. Stream size : 18.0 GiB (99%)

  30. Color range : Limited

  31. Color primaries : BT.709

  32. Transfer characteristics : BT.709

  33. Matrix coefficients : BT.709

  34. Codec configuration box : hvcC


  35. Audio

  36. ID : 2

  37. Format : AC-3

  38. Format/Info : Audio Coding 3

  39. Commercial name : Dolby Digital

  40. Codec ID : ac-3

  41. Duration : 1 h 26 min

  42. Bit rate mode : Constant

  43. Bit rate : 384 kb/s

  44. Channel(s) : 2 channels

  45. Channel layout : L R

  46. Sampling rate : 48.0 kHz

  47. Frame rate : 31.250 FPS (1536 SPF)

  48. Compression mode : Lossy

  49. Stream size : 239 MiB (1%)

  50. Service kind : Complete Main

  51. Default : Yes

  52. Alternate group : 1




复制代码



文件下载


除非特别注明,本文『诡镇[国语配音/中文字幕].The.Apostles.2014.2160p.WEB-DL.H265.DD2.0 18.28GB』来源于互联网机器人自动抓取,非本站原创。 浮游电影网不对本文拥有版权,如有侵犯,请联系邮箱:fuyouu#yandex.com[#换成@]投诉。我们会在15个工作日内删除。 但烦请转载时请标明出处:“本文转载于『浮游电影网』,原文地址:https://www.fuyouu.com/14679.html

评论吧骚年!

发表你的见解   

昵称*

E-mail*(建议输入,以便收到博主回复的提示邮件)

验证码*

您可以使用eMule或eMule Mod(Windows)、aMule(Win、Linux、Mac)等软件下载eD2k链接。。
eMule收藏集(.emulecollection)文件是您选中的所有链接的列表文件。eMule可以直接下载它们。
按住SHIFT键选择可以选中多个选择框。
可用文件名和大小选择器来选择文件。
文件名选择器帮您根据文件名称或后缀来选择文件。不分大小写。
符号使用:
和:空格( )、+
不包含:-
或:|
转义:一对英文引号("");
匹配开头:^
匹配结尾:$
例如:
选中所有名称中包含有“eMule”或“0.49c”字眼,但不包含有“exe”字眼的:emule|0.49c -exe
选中所有名称的开头是“eMule”,结尾是“0.49c”的:^emule 0.49c$
选中所有名称中带有“eMule 0.49c”的(必须是“eMule 0.49c”,中间没有别的字符,不能是“eMule fake 0.49c”),需要转义:"emule 0.49c"
大小选择器帮您根据文件大小选择文件。