当前位置: 首页 >> 日韩电影 >> 国家破产之日[中文字幕].Default.2018.1080p.FriDay.WEB-DL.H264.AAC 3.14GB >> 正文

国家破产之日[中文字幕].Default.2018.1080p.FriDay.WEB-DL.H264.AAC 3.14GB

2021年10月01日 13:55:51     电影发布:来源于网络     电影分类:日韩电影     评论(0)    

国家破产之日[中文字幕].Default.2018.1080p.FriDay.WEB DL.H264.AAC 3.14GB 剧情片 日韩电影  第1张

◎译 名 国家破产之日 / 救韩大时代(港) / 分秒币争(台) / 国家不渡之日 / Default

◎片 名 ????? ?

◎年 代 2018

◎产 地 韩国

◎类 别 剧情

◎语 言 韩语 / 英语

◎上映日期 2018-11-28(韩国)

◎IMDb链接 https://www.imdb.com/title/tt7233726/

◎豆瓣评分 7.5/10 (40137人评价)

◎豆瓣链接 https://movie.douban.com/subject/27197086/

◎片 长 114分钟

◎导 演 崔国熙 Choi Gook-hee (id:1385269)

◎编 剧 严成民 Seong-min Eom (id:1402970)

◎演 员 金惠秀 Hye-soo Kim (id:1050699)

刘亚仁 Ah-in Yoo (id:1246859)

许峻豪 Jun-ho Heo (id:1287129)

赵宇镇 Woo-jin Jo (id:1353641)

文森特·卡索 Vincent Cassel (id:1036377)

金弘波 Hong-Fa Kim (id:1353736)

严孝燮 Uhm Hyo Sup (id:1328840)

宋永彰 Young-chang Song (id:1158386)

权海骁 Hae-hyo Kwon (id:1043692)

赵汉哲 Han-chul Jo (id:1386180)

柳德焕 Deok-Hwan Ryu (id:1309705)

朴真珠 Jin-ju Park (id:1325713)

张成范 Sung-bum Jang (id:1381951)

全裴修 Bae-soo Jeon (id:1381316)

金民尚 Kim Min-sang (id:1373334)

郑圭洙 Gyu-su Jeong (id:1053150)

金雷夏 Roe-ha Kim (id:1213426)

李喜元 Won Hee Lee (id:1381798)

丹尼尔·乔伊·奥尔布赖特 Daniel Joey Albright (id:1381283)

韩智敏 Ji-min Han (id:1042315)

金亨奎 Hyung-guy Kim (id:1374154)

廉惠兰 Yum Hye-ran (id:1378885)

柳泰浩 Tae-ho Ryu (id:1373557)

尹炳熙 Yoon Byeong-hee (id:1382221)

崔俊英 Joon-young Choi (id:1400712)

瑞安·毛瑞尔 Ryan Maurer (id:1406040)

金泰律 Tae-yool Kim (id:1383263)

郑宗烈 Jong-yeol Jeong (id:1384049)

刘尚宰 Sang-jae Yoo (id:1385486)

Si-hoon Choi Si-hoon Choi (id:1397857)

卞真洙 Jin-soo Byeon (id:1397856)

(id:1374558)

金炯默 Hyeong-mook Kim (id:1387708)

李豪宰 Lee Ho-jae (id:1386429)

孙敏锡 Min-seok Son (id:1456520)

黄仁俊 In-Jun Hwang (id:1424214)

安秀浩 Soo-ho Ahn (id:1437477)

韩利进 Yi-jin Han (id:1384384)

姜汉泉 Han-saem Kang (id:1436213)

崔灿民 Chan-min Choi (id:1348316)

(id:1312176)

◎标 签 韩国 / 金融危机 / 金融 / 政治 / 经济危机 / 社会 / 剧情 / 2018

◎简 介

《国家破产之日》将镜头对准了1997年的亚洲金融风暴。讲述国家破产前的一周时间内,想要阻止危机的人和追逐利益的人身上发生的故事。金慧秀在片中饰演最早预见破产并开始寻找对策的韩国银行通货政策小组组长韩诗贤,面对复杂的体系和权利关系,她面前的道路可谓困难重重;刘亚仁则饰演在危机中逐利的金融才子尹正学;法国影帝文森·卡索将饰演秘密入韩的IMF总裁。

◎获奖情况 (共4项)

第40届韩国电影青龙奖 (2019)

最佳女主角(提名)

└──金惠秀 (id:1050699)

最佳男配角

└──赵宇镇 (id:1353641)

最佳剧本(提名)

第55届百想艺术大赏 (2019)

电影类 最佳女主角(提名)

└──金惠秀 (id:1050699)

  1. ##### MediaInfo ######

  2. General

  3. Unique ID : 276204564877736113427680768818417019194 (0xCFCB107135C43B561E55B2C44C54A93A)

  4. Complete name : [email protected]

  5. Format : Matroska

  6. Format version : Version 4

  7. File size : 3.14 GiB

  8. Duration : 1 h 55 min

  9. Overall bit rate : 3 891 kb/s

  10. Encoded date : UTC 2021-06-25 06:44:15

  11. Writing application : mkvmerge v56.1.0 ('My Friend') 64-bit

  12. Writing library : libebml v1.4.2 + libmatroska v1.6.4


  13. Video

  14. ID : 1

  15. Format : AVC

  16. Format/Info : Advanced Video Codec

  17. Format profile : [email protected]

  18. Format settings : CABAC / 1 Ref Frames

  19. Format settings, CABAC : Yes

  20. Format settings, Reference frames : 1 frame

  21. Format settings, GOP : M=1, N=60

  22. Codec ID : V_MPEG4/ISO/AVC

  23. Duration : 1 h 55 min

  24. Bit rate mode : Constant

  25. Bit rate : 3 763 kb/s

  26. Nominal bit rate : 4 000 kb/s

  27. Width : 1 920 pixels

  28. Height : 1 080 pixels

  29. Display aspect ratio : 16:9

  30. Frame rate mode : Constant

  31. Frame rate : 29.970 (30000/1001/53354) FPS

  32. Color space : YUV

  33. Chroma subsampling : 4:2:0

  34. Bit depth : 8 bits

  35. Scan type : Progressive

  36. Bits/(Pixel*Frame) : 0.061

  37. Stream size : 3.03 GiB (97%)

  38. Language : English

  39. Default : Yes

  40. Forced : No


  41. Audio

  42. ID : 2

  43. Format : AAC LC

  44. Format/Info : Advanced Audio Codec Low Complexity

  45. Codec ID : A_AAC-2

  46. Duration : 1 h 55 min

  47. Bit rate : 125 kb/s

  48. Channel(s) : 2 channels

  49. Channel layout : L R

  50. Sampling rate : 48.0 kHz

  51. Frame rate : 46.875 FPS (1024 SPF)

  52. Compression mode : Lossy

  53. Stream size : 104 MiB (3%)

  54. Language : Korean

  55. Default : Yes

  56. Forced : No


  57. Text #1

  58. ID : 3

  59. Format : UTF-8

  60. Codec ID : S_TEXT/UTF8

  61. Codec ID/Info : UTF-8 Plain Text

  62. Duration : 1 h 49 min

  63. Bit rate : 54 b/s

  64. Count of elements : 1650

  65. Stream size : 43.4 KiB (0%)

  66. Title : Chinese Simplified

  67. Language : Chinese

  68. Default : Yes

  69. Forced : No


  70. Text #2

  71. ID : 4

  72. Format : UTF-8

  73. Codec ID : S_TEXT/UTF8

  74. Codec ID/Info : UTF-8 Plain Text

  75. Duration : 1 h 49 min

  76. Bit rate : 54 b/s

  77. Count of elements : 1650

  78. Stream size : 43.4 KiB (0%)

  79. Title : Chinese Traditional

  80. Language : Chinese

  81. Default : No

  82. Forced : No




复制代码



文件下载


除非特别注明,本文『国家破产之日[中文字幕].Default.2018.1080p.FriDay.WEB-DL.H264.AAC 3.14GB』来源于互联网机器人自动抓取,非本站原创。 浮游电影网不对本文拥有版权,如有侵犯,请联系邮箱:fuyouu#yandex.com[#换成@]投诉。我们会在15个工作日内删除。 但烦请转载时请标明出处:“本文转载于『浮游电影网』,原文地址:https://www.fuyouu.com/14675.html

评论吧骚年!

发表你的见解   

昵称*

E-mail*(建议输入,以便收到博主回复的提示邮件)

验证码*

您可以使用eMule或eMule Mod(Windows)、aMule(Win、Linux、Mac)等软件下载eD2k链接。。
eMule收藏集(.emulecollection)文件是您选中的所有链接的列表文件。eMule可以直接下载它们。
按住SHIFT键选择可以选中多个选择框。
可用文件名和大小选择器来选择文件。
文件名选择器帮您根据文件名称或后缀来选择文件。不分大小写。
符号使用:
和:空格( )、+
不包含:-
或:|
转义:一对英文引号("");
匹配开头:^
匹配结尾:$
例如:
选中所有名称中包含有“eMule”或“0.49c”字眼,但不包含有“exe”字眼的:emule|0.49c -exe
选中所有名称的开头是“eMule”,结尾是“0.49c”的:^emule 0.49c$
选中所有名称中带有“eMule 0.49c”的(必须是“eMule 0.49c”,中间没有别的字符,不能是“eMule fake 0.49c”),需要转义:"emule 0.49c"
大小选择器帮您根据文件大小选择文件。