当前位置: 首页 >> 港台电影 >> 热带鱼[国语配音/中文字幕].Tropical.Fish.1995.1080p.BluRay.x265.10bit.FLAC.2.0 7.36GB >> 正文

热带鱼[国语配音/中文字幕].Tropical.Fish.1995.1080p.BluRay.x265.10bit.FLAC.2.0 7.36GB

2021年10月01日 13:54:43     电影发布:来源于网络     电影分类:港台电影     评论(0)    

热带鱼[国语配音/中文字幕].Tropical.Fish.1995.1080p.BluRay.x265.10bit.FLAC.2.0 7.36GB 喜剧片 剧情片 港台电影  第1张

◎译 名 热带鱼 / Tropical Fish

◎片 名 熱帶魚

◎年 代 1995

◎产 地 中国台湾

◎类 别 剧情 / 喜剧

◎语 言 汉语普通话 / 闽南语

◎上映日期 1995-08-01(中国台湾)

◎IMDb链接 https://www.imdb.com/title/tt0117970/

◎豆瓣评分 8.6/10 (10254人评价)

◎豆瓣链接 https://movie.douban.com/subject/1302181/

◎片 长 109分钟

◎导 演 陈玉勋 Yu-Hsun Chen (id:1280588)

◎编 剧 陈玉勋 Yu-Hsun Chen (id:1280588)

◎演 员 林嘉宏 Jiahong Lin (id:1400551)

文英 Wen Ying (id:1300694)

林正盛 Cheng-sheng Lin (id:1275077)

郎祖筠 Tsu-Yun Lang (id:1320970)

阿匹婆 Ah-Pi Po (id:1337755)

陈慕义 Akio Chen (id:1331895)

赵正平 Cheng-ping Chao (id:1314572)

席敬伦 Ching-Luen Shi (id:1405872)

连碧东 Pi-tung Lien (id:1405871)

范筱梵 Nana Fan (id:1314829)

黄美文 Meiwen Huang (id:1447932)

徐立功 Li-Kong Hsu (id:1287036)

江奉琪 Feng-Chyt Jiang (id:1287722)

廖本榕 Pen-jung Liao (id:1290004)

陈胜昌 Sheng-Chang Chen (id:1280576)

王明台 Ming-Tai Wang (id:1300400)

◎标 签 台湾 / 台湾电影 / 喜剧 / 陈玉勋 / 1995 / 梦想 / 青春 / 热带鱼

◎简 介

在台北市即将进入联考的紧张又炎热的夏天里,刘志强整天幻想着带暗恋的女孩去绿岛上坐潜水艇游海底,做着“热带鱼”的美梦。在又一次令父母失望的模考成绩下,他偶然在电视上看见一起绑架案,试图只身解救小孩没想到自己反被抓了去。绑匪阿庆(林正盛 饰)是自乡下来台北混世的打工仔,勒索失败后他把两个小孩带回了家。阿庆全家人生活困顿却其乐融融,一面悉心安顿两个小孩的生活另一面想办法如何获得高额的绑票。阿庆甚至找来辍学妹妹阿娟闲置的书本让刘志强继续复习。最终,警察还是找到了被阿庆带到海上逃避追捕的刘志强,可刘志强却否认阿庆是绑匪……

◎获奖情况 (共6项)

第32届台北金马影展 (1995)

金马奖 最佳剧情片(提名)

金马奖 最佳导演(提名)

└──陈玉勋 (id:1280588)

金马奖 最佳男配角(提名)

└──林正盛 (id:1275077)

金马奖 最佳女配角

└──文英 (id:1300694)

金马奖 最佳原著剧本

└──陈玉勋 (id:1280588)

第49届洛迦诺国际电影节 (1995)

金豹奖(提名)

└──陈玉勋 (id:1280588)

  1. ##### MediaInfo ######

  2. General

  3. Unique ID : 61064303574250353641780407035678714340 (0x2DF08E9CB55871DDC0CB8FEFB3DC69E4)

  4. Complete name : [email protected].COM.mkv

  5. Format : Matroska

  6. Format version : Version 4

  7. File size : 7.35 GiB

  8. Duration : 1 h 48 min

  9. Overall bit rate mode : Variable

  10. Overall bit rate : 9 672 kb/s

  11. Encoded date : UTC 2021-09-30 02:34:51

  12. Writing application : mkvmerge v61.0.0 ('So') 64-bit

  13. Writing library : libebml v1.4.2 + libmatroska v1.6.4

  14. Attachments : WenQuanWeiMiHei-1.ttf


  15. Video

  16. ID : 1

  17. Format : HEVC

  18. Format/Info : High Efficiency Video Coding

  19. Format profile : Main [email protected]@Main

  20. Codec ID : V_MPEGH/ISO/HEVC

  21. Duration : 1 h 48 min

  22. Bit rate : 9 357 kb/s

  23. Width : 1 920 pixels

  24. Height : 1 064 pixels

  25. Display aspect ratio : 16:9

  26. Frame rate mode : Constant

  27. Frame rate : 24.000 FPS

  28. Color space : YUV

  29. Chroma subsampling : 4:2:0

  30. Bit depth : 10 bits

  31. Bits/(Pixel*Frame) : 0.191

  32. Stream size : 7.11 GiB (97%)

  33. Writing library : x265 3.5+2-g2b25c9ba0+45:[Windows][GCC 10.2.0][64 bit] Yuuki 10bit+8bit+12bit

  34. Encoding settings : rc=crf / crf=19.0000 / qcomp=0.65 / qpstep=4 / stats-write=0 / stats-read=0 / no-lossless / no-cu-lossless / aq-mode=3 / aq-strength=0.80 / cbqpoffs=0 / crqpoffs=0 / ipratio=1.40 / pbratio=1.30 / psy-rd=2.00 / psy-rdoq=0.00 / deblock=0:0 / ref=6 / limit-refs=1 / no-limit-modes / bframes=8 / b-adapt=2 / bframe-bias=0 / b-pyramid / b-intra / weightp / weightb / min-keyint=24 / max-keyint=240 / rc-lookahead=24 / gop-lookahead=0 / NTMzNTQ=uuDQuD2mJt9fsCf / scenecut=40 / hist-scenecut=0 / radl=0 / max-cu-size=64 / min-cu-size=8 / me=3 / subme=7 / merange=48 / rdoq-level=0 / rd=4 / rdpenalty=0 / dynamic-rd=0.00 / no-rd-refine / ----- / cutree / sao / no-rect / no-amp / no-open-gop / wpp / no-pmode / pme / no-psnr / no-ssim / nr-intra=0 / nr-inter=0 / no-constrained-intra / no-strong-intra-smoothing / max-tu-size=32 / tu-inter-depth=1 / tu-intra-depth=1 / limit-tu=0 / qg-size=32 / qpmax=69 / qpmin=0 / ----- / cpuid=533541111039 / frame-threads=4 / numa-pools=+ / log-level=2 / input-csp=1 / input-res=1920x1064 / interlace=0 / level-idc=0 / high-tier=1 / uhd-bd=0 / no-allow-non-conformance / no-repeat-headers / aud / no-hrd / info / hash=0 / no-temporal-layers / lookahead-slices=0 / no-splice / no-intra-refresh / no-ssim-rd / signhide / no-tskip / max-merge=3 / temporal-mvp / no-frame-dup / no-hme / no-analyze-src-pics / no-sao-non-deblock / selective-sao=4 / early-skip / rskip / no-fast-intra / no-tskip-fast / no-splitrd-skip / zone-count=0 / no-strict-cbr / no-rc-grain / no-const-vbv / sar=0 / overscan=0 / videoformat=5 / range=0 / colorprim=2 / transfer=2 / colormatrix=2 / chromaloc=0 / display-window=0 / cll=0,0 / min-luma=0 / max-luma=1023 / log2-max-poc-lsb=8 / vui-timing-info / vui-hrd-info / slices=1 / no-opt-qp-pps / no-opt-ref-list-length-pps / no-multi-pass-opt-rps / scenecut-bias=0.05 / hist-threshold=0.03 / no-opt-cu-delta-qp / no-aq-motion / no-hdr10 / no-hdr10-opt / no-dhdr10-opt / no-idr-recovery-sei / analysis-reuse-level=0 / analysis-save-reuse-level=0 / analysis-load-reuse-level=0 / scale-factor=0 / refine-intra=0 / refine-inter=0 / refine-mv=1 / refine-ctu-distortion=0 / no-limit-sao / ctu-info=0 / no-lowpass-dct / refine-analysis-type=0 / copy-pic=1 / max-ausize-factor=1.0 / no-dynamic-refine / no-single-sei / no-hevc-aq / no-svt / no-field / qp-adaptation-range=1.00 / scenecut-aware-qp=0conformance-window-offsets / right=0 / bottom=0 / NTMzNTQ= / decoder-max-rate=0 / no-vbv-live-multi-pass

  35. Default : Yes

  36. Forced : No


  37. Audio

  38. ID : 2

  39. Format : FLAC

  40. Format/Info : Free Lossless Audio Codec

  41. Codec ID : A_FLAC

  42. Duration : 1 h 48 min

  43. Bit rate mode : Variable

  44. Bit rate : 310 kb/s

  45. Channel(s) : 2 channels

  46. Channel layout : L R

  47. Sampling rate : 48.0 kHz

  48. Frame rate : 11.719 FPS (4096 SPF)

  49. Bit depth : 16 bits

  50. Compression mode : Lossless

  51. Stream size : 240 MiB (3%)

  52. Writing library : libFLAC 1.2.1 (UTC 2007-09-17)

  53. Language : Chinese

  54. Default : Yes

  55. Forced : No


  56. Text #1

  57. ID : 3

  58. Format : ASS

  59. Codec ID : S_TEXT/ASS

  60. Codec ID/Info : Advanced Sub Station Alpha

  61. Duration : 1 h 45 min

  62. Bit rate : 106 b/s

  63. Count of elements : 1754

  64. Compression mode : Lossless

  65. Stream size : 82.2 KiB (0%)

  66. Title : chs

  67. Language : Chinese

  68. Default : Yes

  69. Forced : No


  70. Text #2

  71. ID : 4

  72. Format : ASS

  73. Codec ID : S_TEXT/ASS

  74. Codec ID/Info : Advanced Sub Station Alpha

  75. Duration : 1 h 45 min

  76. Bit rate : 106 b/s

  77. Count of elements : 1754

  78. Compression mode : Lossless

  79. Stream size : 82.2 KiB (0%)

  80. Title : cht

  81. Language : Chinese

  82. Default : No

  83. Forced : No


  84. Text #3

  85. ID : 5

  86. Format : UTF-8

  87. Codec ID : S_TEXT/UTF8

  88. Codec ID/Info : UTF-8 Plain Text

  89. Duration : 1 h 46 min

  90. Bit rate : 46 b/s

  91. Count of elements : 1673

  92. Stream size : 35.8 KiB (0%)

  93. Title : eng

  94. Language : English

  95. Default : No

  96. Forced : No


  97. Menu

  98. 00:00:00.000 : Chapter 01

  99. 00:09:46.291 : Chapter 02

  100. 00:18:27.041 : Chapter 03

  101. 00:26:41.375 : Chapter 04

  102. 00:35:17.916 : Chapter 05

  103. 00:42:18.833 : Chapter 06

  104. 00:52:44.625 : Chapter 07

  105. 01:01:30.333 : Chapter 08

  106. 01:10:13.000 : Chapter 09

  107. 01:19:43.833 : Chapter 10

  108. 01:27:01.041 : Chapter 11

  109. 01:40:22.791 : Chapter 12




复制代码



文件下载


除非特别注明,本文『热带鱼[国语配音/中文字幕].Tropical.Fish.1995.1080p.BluRay.x265.10bit.FLAC.2.0 7.36GB』来源于互联网机器人自动抓取,非本站原创。 浮游电影网不对本文拥有版权,如有侵犯,请联系邮箱:fuyouu#yandex.com[#换成@]投诉。我们会在15个工作日内删除。 但烦请转载时请标明出处:“本文转载于『浮游电影网』,原文地址:https://5.189.174.242/14674.html

评论吧骚年!

发表你的见解   

昵称*

E-mail*(建议输入,以便收到博主回复的提示邮件)

验证码*

您可以使用eMule或eMule Mod(Windows)、aMule(Win、Linux、Mac)等软件下载eD2k链接。。
eMule收藏集(.emulecollection)文件是您选中的所有链接的列表文件。eMule可以直接下载它们。
按住SHIFT键选择可以选中多个选择框。
可用文件名和大小选择器来选择文件。
文件名选择器帮您根据文件名称或后缀来选择文件。不分大小写。
符号使用:
和:空格( )、+
不包含:-
或:|
转义:一对英文引号("");
匹配开头:^
匹配结尾:$
例如:
选中所有名称中包含有“eMule”或“0.49c”字眼,但不包含有“exe”字眼的:emule|0.49c -exe
选中所有名称的开头是“eMule”,结尾是“0.49c”的:^emule 0.49c$
选中所有名称中带有“eMule 0.49c”的(必须是“eMule 0.49c”,中间没有别的字符,不能是“eMule fake 0.49c”),需要转义:"emule 0.49c"
大小选择器帮您根据文件大小选择文件。