当前位置: 首页 >> 国产电影 >> 独自等待[国语配音/中文字幕].Waiting.Alone.2005.1080p.BluRay.x265.10bit.DTS 8.30GB >> 正文

独自等待[国语配音/中文字幕].Waiting.Alone.2005.1080p.BluRay.x265.10bit.DTS 8.30GB

2021年10月01日 13:49:05     电影发布:来源于网络     电影分类:国产电影     评论(0)    

独自等待[国语配音/中文字幕].Waiting.Alone.2005.1080p.BluRay.x265.10bit.DTS 8.30GB 爱情片 喜剧片 剧情片 国产电影  第1张

◎译 名 独自等待 / Waiting Alone

◎年 代 2004

◎产 地 中国大陆

◎类 别 剧情 / 喜剧 / 爱情

◎语 言 汉语普通话

◎上映日期 2005-09-08(中国大陆) / 2004-10-26(东京电影节)

◎IMDb链接 https://www.imdb.com/title/tt0311041/

◎豆瓣评分 8.2/10 (189146人评价)

◎豆瓣链接 https://movie.douban.com/subject/1308741/

◎片 长 107 分钟

◎导 演 伍仕贤 Dayyan Eng (id:1274368)

◎编 剧 伍仕贤 Dayyan Eng (id:1274368)

◎演 员 夏雨 Yu Xia (id:1041082)

李冰冰 Bingbing Li (id:1040990)

龚蓓苾 Beibi Gong (id:1274298)

高旗 Qi Gao (id:1035279)

吴超 Chao Wu (id:1276003)

高亚麟 Yalin Gao (id:1314443)

涂松岩 Songyan Tu (id:1276048)

伍仕贤 Dayyan Eng (id:1274368)

李丽虹 Lihong Li (id:1318423)

袁泉 Quan Yuan (id:1010504)

周润发 Yun-Fat Chow (id:1044899)

陈羽凡 Yufan Chen (id:1316346)

葛存壮 Cunzhuang Ge (id:1275415)

英达 Da Ying (id:1011479)

吴大维 David Wu (id:1028801)

雷恪生 Kesheng Lei (id:1274724)

李霞 Xia Li (id:1324397)

福海 Hai Fu (id:1427924)

伍仕贤 Dayyan Eng (id:1274368)

Toby Oliver Toby Oliver (id:1276292)

伍仕贤 Dayyan Eng (id:1274368)

庄志良 Thomas Chong (id:1280711)

◎标 签 爱情 / 青春 / 文艺 / 中国大陆 / 成长 / 喜剧 / 2005 / 剧情

◎简 介

繁华都市之中,年轻的陈文(夏雨饰)和他的一班好友怀揣各自的梦想,终日徘徊在等待与寻觅的地平线上。在偶然邂逅理想中的爱情目标刘荣(李冰冰饰)之后,陈文渴望爱情的激情被瞬间点燃。在好友们(高旗、吴超、高亚麟等饰)的百般怂恿之下,经由绰号“孙子”(涂松岩饰)的所谓“恋爱专家”点拨,陈文不顾一切地是展出五花八门的求爱攻略,演绎出一幕幕颇具喜剧色彩的浪漫情节。然而此时,在他身旁暗中相助的多年玩伴李静(龚蓓苾饰),却在心中默默隐藏着对陈文的真爱。 在独自等待的人生旅途中,每一个青涩生命不断努力实践着梦想,在不知不觉中体味到成长的真实滋味……

◎获奖情况 (共7项)

第17届东京国际电影节 (2004)

亚洲之风 最佳亚洲电影(提名)

└──伍仕贤 (id:1274368)

第25届中国电影金鸡奖 (2005)

最佳故事片(提名)

└──伍仕贤 (id:1274368)

最佳女主角(提名)

└──李冰冰 (id:1040990)

最佳美术(提名)

└──庄志良 (id:1280711)

第9届釜山国际电影节 (2004)

新浪潮奖(提名)

└──伍仕贤 (id:1274368)

第12届北京大学生电影节 (2005)

最佳男演员奖

└──夏雨 (id:1041082)

最佳处女作奖

└──伍仕贤 (id:1274368)

  1. ##### MediaInfo ######

  2. General

  3. Unique ID : 1362945804461369713162423083193441416 (0x1067E6A93C2EF543963BF9FE8359C88)

  4. Complete name : [email protected]mkv

  5. Format : Matroska

  6. Format version : Version 4

  7. File size : 8.30 GiB

  8. Duration : 1 h 50 min

  9. Overall bit rate : 10.7 Mb/s

  10. Movie name : Waiting Alone

  11. Encoded date : UTC 2021-09-29 12:03:44

  12. Writing application : mkvmerge v61.0.0 ('So') 64-bit

  13. Writing library : libebml v1.4.2 + libmatroska v1.6.4

  14. Cover : Yes

  15. Attachments : WenQuanWeiMiHei-1.ttf / cover.jpg


  16. Video

  17. ID : 1

  18. Format : HEVC

  19. Format/Info : High Efficiency Video Coding

  20. Format profile : Main [email protected]@Main

  21. Codec ID : V_MPEGH/ISO/HEVC

  22. Duration : 1 h 50 min

  23. Bit rate : 9 204 kb/s

  24. Width : 1 918 pixels

  25. Height : 1 038 pixels

  26. Display aspect ratio : 1.85:1

  27. Frame rate mode : Constant

  28. Frame rate : 24.000 FPS

  29. Color space : YUV

  30. Chroma subsampling : 4:2:0

  31. Bit depth : 10 bits

  32. Bits/(Pixel*Frame) : 0.193

  33. Stream size : 7.12 GiB (86%)

  34. Writing library : x265 3.5+2-g2b25c9ba0+45:[Windows][GCC 10.2.0][64 bit] Yuuki 10bit+8bit+12bit

  35. Encoding settings : rc=crf / crf=18.5000 / qcomp=0.65 / qpstep=4 / stats-write=0 / stats-read=0 / no-lossless / no-cu-lossless / aq-mode=3 / aq-strength=0.80 / cbqpoffs=0 / crqpoffs=0 / ipratio=1.40 / pbratio=1.30 / psy-rd=2.00 / psy-rdoq=0.00 / deblock=0:0 / ref=6 / limit-refs=1 / no-limit-modes / bframes=8 / b-adapt=2 / bframe-bias=0 / b-pyramid / b-intra / weightp / weightb / min-keyint=24 / max-keyint=240 / rc-lookahead=24 / gop-lookahead=0 / NTMzNTQ=uuDQuD2mJt9fsCf / scenecut=40 / hist-scenecut=0 / radl=0 / max-cu-size=64 / min-cu-size=8 / me=3 / subme=7 / merange=48 / rdoq-level=0 / rd=4 / rdpenalty=0 / dynamic-rd=0.00 / no-rd-refine / ----- / cutree / sao / no-rect / no-amp / no-open-gop / wpp / no-pmode / pme / no-psnr / no-ssim / nr-intra=0 / nr-inter=0 / no-constrained-intra / no-strong-intra-smoothing / max-tu-size=32 / tu-inter-depth=1 / tu-intra-depth=1 / limit-tu=0 / qg-size=32 / qpmax=69 / qpmin=0 / ----- / cpuid=533541111039 / frame-threads=4 / numa-pools=+ / log-level=2 / input-csp=1 / input-res=1918x1038 / interlace=0 / level-idc=0 / high-tier=1 / uhd-bd=0 / no-allow-non-conformance / no-repeat-headers / aud / no-hrd / info / hash=0 / no-temporal-layers / lookahead-slices=0 / no-splice / no-intra-refresh / no-ssim-rd / signhide / no-tskip / max-merge=3 / temporal-mvp / no-frame-dup / no-hme / no-analyze-src-pics / no-sao-non-deblock / selective-sao=4 / early-skip / rskip / no-fast-intra / no-tskip-fast / no-splitrd-skip / zone-count=0 / no-strict-cbr / no-rc-grain / no-const-vbv / sar=0 / overscan=0 / videoformat=5 / range=0 / colorprim=2 / transfer=2 / colormatrix=2 / chromaloc=0 / display-window=0 / cll=0,0 / min-luma=0 / max-luma=1023 / log2-max-poc-lsb=8 / vui-timing-info / vui-hrd-info / slices=1 / no-opt-qp-pps / no-opt-ref-list-length-pps / no-multi-pass-opt-rps / scenecut-bias=0.05 / hist-threshold=0.03 / no-opt-cu-delta-qp / no-aq-motion / no-hdr10 / no-hdr10-opt / no-dhdr10-opt / no-idr-recovery-sei / analysis-reuse-level=0 / analysis-save-reuse-level=0 / analysis-load-reuse-level=0 / scale-factor=0 / refine-intra=0 / refine-inter=0 / refine-mv=1 / refine-ctu-distortion=0 / no-limit-sao / ctu-info=0 / no-lowpass-dct / refine-analysis-type=0 / copy-pic=1 / max-ausize-factor=1.0 / no-dynamic-refine / no-single-sei / no-hevc-aq / no-svt / no-field / qp-adaptation-range=1.00 / scenecut-aware-qp=0conformance-window-offsets / right=0 / bottom=0 / NTMzNTQ= / decoder-max-rate=0 / no-vbv-live-multi-pass

  36. Default : Yes

  37. Forced : No


  38. Audio

  39. ID : 2

  40. Format : DTS

  41. Format/Info : Digital Theater Systems

  42. Codec ID : A_DTS

  43. Duration : 1 h 50 min

  44. Bit rate mode : Constant

  45. Bit rate : 1 510 kb/s

  46. Channel(s) : 6 channels

  47. Channel layout : C L R Ls Rs LFE

  48. Sampling rate : 48.0 kHz

  49. Frame rate : 93.750 FPS (512 SPF)

  50. Bit depth : 24 bits

  51. Compression mode : Lossy

  52. Stream size : 1.17 GiB (14%)

  53. Language : Chinese

  54. Default : Yes

  55. Forced : No


  56. Text #1

  57. ID : 3

  58. Format : ASS

  59. Codec ID : S_TEXT/ASS

  60. Codec ID/Info : Advanced Sub Station Alpha

  61. Duration : 1 h 47 min

  62. Bit rate : 97 b/s

  63. Count of elements : 1648

  64. Compression mode : Lossless

  65. Stream size : 76.7 KiB (0%)

  66. Title : chs

  67. Language : Chinese

  68. Default : Yes

  69. Forced : No


  70. Text #2

  71. ID : 4

  72. Format : ASS

  73. Codec ID : S_TEXT/ASS

  74. Codec ID/Info : Advanced Sub Station Alpha

  75. Duration : 1 h 47 min

  76. Bit rate : 97 b/s

  77. Count of elements : 1651

  78. Compression mode : Lossless

  79. Stream size : 76.8 KiB (0%)

  80. Title : cht

  81. Language : Chinese

  82. Default : No

  83. Forced : No


  84. Text #3

  85. ID : 5

  86. Format : UTF-8

  87. Codec ID : S_TEXT/UTF8

  88. Codec ID/Info : UTF-8 Plain Text

  89. Duration : 1 h 47 min

  90. Bit rate : 51 b/s

  91. Count of elements : 1452

  92. Stream size : 40.3 KiB (0%)

  93. Title : eng

  94. Language : English

  95. Default : No

  96. Forced : No


  97. Menu

  98. 00:00:00.000 : Chapter 01

  99. 00:08:55.833 : Chapter 02

  100. 00:18:00.833 : Chapter 03

  101. 00:30:06.708 : Chapter 04

  102. 00:37:45.333 : Chapter 05

  103. 00:46:39.750 : Chapter 06

  104. 00:54:58.541 : Chapter 07

  105. 01:04:24.291 : Chapter 08

  106. 01:13:26.625 : Chapter 09

  107. 01:24:30.166 : Chapter 10

  108. 01:31:54.625 : Chapter 11

  109. 01:39:20.208 : Chapter 12


文件下载


除非特别注明,本文『独自等待[国语配音/中文字幕].Waiting.Alone.2005.1080p.BluRay.x265.10bit.DTS 8.30GB』来源于互联网机器人自动抓取,非本站原创。 浮游电影网不对本文拥有版权,如有侵犯,请联系邮箱:fuyouu#yandex.com[#换成@]投诉。我们会在15个工作日内删除。 但烦请转载时请标明出处:“本文转载于『浮游电影网』,原文地址:https://www.fuyouu.com/14670.html

评论吧骚年!

发表你的见解   

昵称*

E-mail*(建议输入,以便收到博主回复的提示邮件)

验证码*

您可以使用eMule或eMule Mod(Windows)、aMule(Win、Linux、Mac)等软件下载eD2k链接。。
eMule收藏集(.emulecollection)文件是您选中的所有链接的列表文件。eMule可以直接下载它们。
按住SHIFT键选择可以选中多个选择框。
可用文件名和大小选择器来选择文件。
文件名选择器帮您根据文件名称或后缀来选择文件。不分大小写。
符号使用:
和:空格( )、+
不包含:-
或:|
转义:一对英文引号("");
匹配开头:^
匹配结尾:$
例如:
选中所有名称中包含有“eMule”或“0.49c”字眼,但不包含有“exe”字眼的:emule|0.49c -exe
选中所有名称的开头是“eMule”,结尾是“0.49c”的:^emule 0.49c$
选中所有名称中带有“eMule 0.49c”的(必须是“eMule 0.49c”,中间没有别的字符,不能是“eMule fake 0.49c”),需要转义:"emule 0.49c"
大小选择器帮您根据文件大小选择文件。