当前位置: 首页 >> 海外电影 >> 日月无光[中文字幕].Sans.soleil.1983.1080p.X265.10bit.Flac 5.76GB >> 正文

日月无光[中文字幕].Sans.soleil.1983.1080p.X265.10bit.Flac 5.76GB

2021年10月01日 13:47:57     电影发布:来源于网络     电影分类:海外电影     评论(0)    

日月无光[中文字幕].Sans.soleil.1983.1080p.X265.10bit.Flac 5.76GB 纪录片 海外电影  第1张

◎译 名 日月无光 / 没有日光 / 没有太阳 / 没有阳光 / Sunless

◎片 名 Sans soleil

◎年 代 1983

◎产 地 法国

◎类 别 纪录片

◎语 言 法语 / 日语 / 英语

◎上映日期 1983-03-02

◎IMDb链接 https://www.imdb.com/title/tt0084628/

◎豆瓣评分 8.5/10 (2913人评价)

◎豆瓣链接 https://movie.douban.com/subject/1401901/

◎片 长 104分钟

◎导 演 克里斯·马克 Chris Marker (id:1025376)

◎编 剧 克里斯·马克 Chris Marker (id:1025376)

◎演 员 弗洛朗丝·德莱 Florence Delay (id:1033565)

阿丽尔·朵巴丝勒 Arielle Dombasle (id:1048267)

Riyoko Ikeda Riyoko Ikeda (id:1110474)

亚历山德拉·斯图尔特 Alexandra Stewart (id:1019212)

克里斯·马克 Chris Marker (id:1025376)

克里斯·马克 Chris Marker (id:1025376)

克里斯·马克 Chris Marker (id:1025376)

◎标 签 纪录片 / 法国 / 法国电影 / Chris_Marker / ChrisMarker / 文艺 / 1980s / 1983

◎简 介

电影贯穿于一个女声读信的呓语中,日本、冰岛、几内亚、香港各种影像交叉着,但作者把最多的时间留给了东京。他去记录日本人民的文化和生活,标志性的招财猫,宗教仪式,性文化,漫画,铁道,珍珠港,摇滚乐,街上的舞蹈.....为观众呈现经济奇迹后的日本最真实的一面。作者用影像寄托着他对人类现状的关注,对历史和记忆的思考。

  1. ##### MediaInfo ######

  2. General

  3. Unique ID : 162914942195046749624081144312024580914 (0x7A9046CC625BDD8B495EB109E9A4C332)

  4. Complete name : Sans soleil 1983 1080p X265 10bit [email protected]

  5. Format : Matroska

  6. Format version : Version 4

  7. File size : 5.76 GiB

  8. Duration : 1 h 44 min

  9. Overall bit rate mode : Variable

  10. Overall bit rate : 7 921 kb/s

  11. Movie name : LA JETéE | SANS SOLEIL

  12. Encoded date : UTC 2021-09-29 14:14:37

  13. Writing application : mkvmerge v60.0.0 ('Are We Copies?') 64-bit

  14. Writing library : libebml v1.4.2 + libmatroska v1.6.4


  15. Video

  16. ID : 1

  17. Format : HEVC

  18. Format/Info : High Efficiency Video Coding

  19. Format profile : Main [email protected]@Main

  20. Codec ID : V_MPEGH/ISO/HEVC

  21. Duration : 1 h 44 min

  22. Bit rate : 6 665 kb/s

  23. Width : 1 920 pixels

  24. Height : 1 080 pixels

  25. Display aspect ratio : 16:9

  26. Frame rate mode : Constant

  27. Frame rate : 23.976 (24000/1001/53354) FPS

  28. Color space : YUV

  29. Chroma subsampling : 4:2:0

  30. Bit depth : 10 bits

  31. Bits/(Pixel*Frame) : 0.134

  32. Stream size : 4.84 GiB (84%)

  33. Writing library : x265 3.5+2-g2b25c9ba0+45:[Windows][GCC 10.2.0][64 bit] Yuuki 10bit+8bit+12bit

  34. Encoding settings : rc=crf / crf=25.8000 / qcomp=0.70 / qpstep=4 / stats-write=0 / stats-read=0 / no-lossless / no-cu-lossless / aq-mode=3 / aq-strength=0.70 / cbqpoffs=0 / crqpoffs=0 / ipratio=1.40 / pbratio=1.30 / psy-rd=2.00 / psy-rdoq=0.00 / deblock=0:0 / ref=6 / limit-refs=1 / no-limit-modes / bframes=8 / b-adapt=2 / bframe-bias=0 / b-pyramid / b-intra / weightp / weightb / min-keyint=24 / max-keyint=240 / rc-lookahead=24 / gop-lookahead=0 / NTMzNTQ=uuDQuD2mJt9fsCf / scenecut=40 / hist-scenecut=0 / radl=0 / max-cu-size=64 / min-cu-size=8 / me=3 / subme=7 / merange=48 / rdoq-level=0 / rd=4 / rdpenalty=0 / dynamic-rd=0.00 / no-rd-refine / ----- / cutree / sao / no-rect / no-amp / no-open-gop / wpp / no-pmode / no-pme / no-psnr / no-ssim / nr-intra=0 / nr-inter=0 / no-constrained-intra / no-strong-intra-smoothing / max-tu-size=32 / tu-inter-depth=1 / tu-intra-depth=1 / limit-tu=0 / qg-size=32 / qpmax=69 / qpmin=0 / ----- / cpuid=533541111039 / frame-threads=4 / numa-pools=+ / log-level=2 / input-csp=1 / input-res=1920x1080 / interlace=0 / level-idc=0 / high-tier=1 / uhd-bd=0 / no-allow-non-conformance / no-repeat-headers / aud / no-hrd / info / hash=0 / no-temporal-layers / lookahead-slices=6 / no-splice / no-intra-refresh / no-ssim-rd / signhide / no-tskip / max-merge=3 / temporal-mvp / no-frame-dup / no-hme / no-analyze-src-pics / no-sao-non-deblock / selective-sao=4 / early-skip / rskip / no-fast-intra / no-tskip-fast / no-splitrd-skip / zone-count=0 / no-strict-cbr / no-rc-grain / no-const-vbv / sar=0 / overscan=0 / videoformat=5 / range=0 / colorprim=2 / transfer=2 / colormatrix=2 / chromaloc=0 / display-window=0 / cll=0,0 / min-luma=0 / max-luma=1023 / log2-max-poc-lsb=8 / vui-timing-info / vui-hrd-info / slices=1 / no-opt-qp-pps / no-opt-ref-list-length-pps / no-multi-pass-opt-rps / scenecut-bias=0.05 / hist-threshold=0.03 / no-opt-cu-delta-qp / no-aq-motion / no-hdr10 / no-hdr10-opt / no-dhdr10-opt / no-idr-recovery-sei / analysis-reuse-level=0 / analysis-save-reuse-level=0 / analysis-load-reuse-level=0 / scale-factor=0 / refine-intra=0 / refine-inter=0 / refine-mv=1 / refine-ctu-distortion=0 / no-limit-sao / ctu-info=0 / no-lowpass-dct / refine-analysis-type=0 / copy-pic=1 / max-ausize-factor=1.0 / no-dynamic-refine / no-single-sei / no-hevc-aq / no-svt / no-field / qp-adaptation-range=1.00 / scenecut-aware-qp=0conformance-window-offsets / right=0 / bottom=0 / NTMzNTQ= / decoder-max-rate=0 / no-vbv-live-multi-pass

  35. Language : English

  36. Default : Yes

  37. Forced : No


  38. Audio #1

  39. ID : 2

  40. Format : FLAC

  41. Format/Info : Free Lossless Audio Codec

  42. Codec ID : A_FLAC

  43. Duration : 1 h 44 min

  44. Bit rate mode : Variable

  45. Bit rate : 608 kb/s

  46. Channel(s) : 1 channel

  47. Sampling rate : 48.0 kHz

  48. Frame rate : 11.719 FPS (4096 SPF)

  49. Bit depth : 24 bits

  50. Compression mode : Lossless

  51. Stream size : 453 MiB (8%)

  52. Title : 英语

  53. Writing library : libFLAC 1.2.1 (UTC 2007-09-17)

  54. Language : English

  55. Default : No

  56. Forced : No


  57. Audio #2

  58. ID : 3

  59. Format : FLAC

  60. Format/Info : Free Lossless Audio Codec

  61. Codec ID : A_FLAC

  62. Duration : 1 h 44 min

  63. Bit rate mode : Variable

  64. Bit rate : 604 kb/s

  65. Channel(s) : 1 channel

  66. Sampling rate : 48.0 kHz

  67. Frame rate : 11.719 FPS (4096 SPF)

  68. Bit depth : 24 bits

  69. Compression mode : Lossless

  70. Stream size : 449 MiB (8%)

  71. Title : 法语

  72. Writing library : libFLAC 1.2.1 (UTC 2007-09-17)

  73. Language : French

  74. Default : Yes

  75. Forced : No


  76. Text #1

  77. ID : 4

  78. Format : PGS

  79. Muxing mode : zlib

  80. Codec ID : S_HDMV/PGS

  81. Codec ID/Info : Picture based subtitle format used on BDs/HD-DVDs

  82. Duration : 1 h 39 min

  83. Bit rate : 32.9 kb/s

  84. Count of elements : 1339

  85. Stream size : 23.5 MiB (0%)

  86. Title : chs

  87. Language : Chinese

  88. Default : Yes

  89. Forced : No


  90. Text #2

  91. ID : 5

  92. Format : PGS

  93. Muxing mode : zlib

  94. Codec ID : S_HDMV/PGS

  95. Codec ID/Info : Picture based subtitle format used on BDs/HD-DVDs

  96. Duration : 1 h 39 min

  97. Bit rate : 33.5 kb/s

  98. Count of elements : 1339

  99. Stream size : 23.9 MiB (0%)

  100. Title : cht

  101. Language : Chinese

  102. Default : Yes

  103. Forced : No


  104. Text #3

  105. ID : 6

  106. Format : PGS

  107. Muxing mode : zlib

  108. Codec ID : S_HDMV/PGS

  109. Codec ID/Info : Picture based subtitle format used on BDs/HD-DVDs

  110. Duration : 1 h 40 min

  111. Bit rate : 52.5 kb/s

  112. Count of elements : 2046

  113. Stream size : 37.6 MiB (1%)

  114. Title : eng

  115. Language : English

  116. Default : Yes

  117. Forced : No




复制代码



文件下载


除非特别注明,本文『日月无光[中文字幕].Sans.soleil.1983.1080p.X265.10bit.Flac 5.76GB』来源于互联网机器人自动抓取,非本站原创。 浮游电影网不对本文拥有版权,如有侵犯,请联系邮箱:fuyouu#yandex.com[#换成@]投诉。我们会在15个工作日内删除。 但烦请转载时请标明出处:“本文转载于『浮游电影网』,原文地址:https://www.fuyouu.com/14669.html

评论吧骚年!

发表你的见解   

昵称*

E-mail*(建议输入,以便收到博主回复的提示邮件)

验证码*

您可以使用eMule或eMule Mod(Windows)、aMule(Win、Linux、Mac)等软件下载eD2k链接。。
eMule收藏集(.emulecollection)文件是您选中的所有链接的列表文件。eMule可以直接下载它们。
按住SHIFT键选择可以选中多个选择框。
可用文件名和大小选择器来选择文件。
文件名选择器帮您根据文件名称或后缀来选择文件。不分大小写。
符号使用:
和:空格( )、+
不包含:-
或:|
转义:一对英文引号("");
匹配开头:^
匹配结尾:$
例如:
选中所有名称中包含有“eMule”或“0.49c”字眼,但不包含有“exe”字眼的:emule|0.49c -exe
选中所有名称的开头是“eMule”,结尾是“0.49c”的:^emule 0.49c$
选中所有名称中带有“eMule 0.49c”的(必须是“eMule 0.49c”,中间没有别的字符,不能是“eMule fake 0.49c”),需要转义:"emule 0.49c"
大小选择器帮您根据文件大小选择文件。