当前位置: 首页 >> 国产电影 >> 简单爱[国语配音/中文字幕].Love.Simply.2014.2160p.WEB-DL.H265.DD2.0 18.39GB >> 正文

简单爱[国语配音/中文字幕].Love.Simply.2014.2160p.WEB-DL.H265.DD2.0 18.39GB

2021年10月01日 13:46:48     电影发布:来源于网络     电影分类:国产电影     评论(0)    

简单爱[国语配音/中文字幕].Love.Simply.2014.2160p.WEB DL.H265.DD2.0 18.39GB 爱情片 国产电影  第1张

◎译 名 简单爱 / 简单。爱 / Love Simply

◎年 代 2014

◎产 地 中国大陆

◎类 别 爱情

◎语 言 汉语普通话

◎上映日期 2015-07-03(中国大陆)

◎IMDb链接 https://www.imdb.com/title/tt3778524/

◎豆瓣评分 2.8/10 (460人评价)

◎豆瓣链接 https://movie.douban.com/subject/25926252/

◎片 长 88分钟

◎导 演 崔燕 Yan Cui (id:1281578)

◎编 剧 崔燕 Yan Cui (id:1281578)

◎演 员 许绍洋 Ambrose Hui (id:1312693)

张琳 Lin Zhang (id:1349313)

谢雨芩 Yuqin Xie (id:1349311)

石铭熙 Mingxi Shi (id:1349312)

赵檀 Tan Zhao (id:1349314)

韩羽轩 Yuxuan Han (id:1349315)

裘斯 Si Qiu (id:1329439)

◎标 签 爱情 / 烂 / 中国 / 浪费生命 / 2015 / 大陆 / 下流 / 电影

◎简 介

凡子(许绍洋 饰)有着辉煌的过去,他曾是一位流行音乐明星,拥有着大批疯狂的粉丝。凡子迎娶了美丽又性感的模特黎丽(裘斯 饰),可是他的生活却就此急转直下,黎丽拜金而又奢侈,在花光了凡子的积蓄之后,她果断的抛弃了早已经过气的丈夫,转而向凡子的搭档乔奇投怀送抱。

萧晓凤(张琳 饰)早年间遭到了丈夫的抛弃,坚强的她并没有自暴自弃,而是抚养女儿萧妮球(谢雨芩 饰)长大。曾经,萧晓凤是一名舞者,现实的打击下,她选择将这个梦想埋藏在心底,等待着重新破土而出的那一天。某日,萧妮球一个无心的谎言让萧晓凤和凡子相遇了。

  1. ##### MediaInfo ######

  2. General

  3. Complete name : 简单爱[email protected]

  4. Format : MPEG-4

  5. Format profile : Base Media

  6. Codec ID : isom (isom/iso2/mp41)

  7. File size : 18.4 GiB

  8. Duration : 1 h 27 min

  9. Overall bit rate : 29.9 Mb/s

  10. Writing application : OurTV Multimedia Platform


  11. Video

  12. ID : 1

  13. Format : HEVC

  14. Format/Info : High Efficiency Video Coding

  15. Format profile : [email protected]@High

  16. Codec ID : hev1

  17. Codec ID/Info : High Efficiency Video Coding

  18. Duration : 1 h 27 min

  19. Bit rate : 29.5 Mb/s

  20. Width : 3 840 pixels

  21. Height : 2 160 pixels

  22. Display aspect ratio : 16:9

  23. Frame rate mode : Constant

  24. Frame rate : 25.000 FPS

  25. Color space : YUV

  26. Chroma subsampling : 4:2:0

  27. Bit depth : 8 bits

  28. Bits/(Pixel*Frame) : 0.142

  29. Stream size : 18.2 GiB (99%)

  30. Color range : Limited

  31. Color primaries : BT.709

  32. Transfer characteristics : BT.709

  33. Matrix coefficients : BT.709

  34. Codec configuration box : hvcC


  35. Audio

  36. ID : 2

  37. Format : AC-3

  38. Format/Info : Audio Coding 3

  39. Commercial name : Dolby Digital

  40. Codec ID : ac-3

  41. Duration : 1 h 27 min

  42. Bit rate mode : Constant

  43. Bit rate : 384 kb/s

  44. Channel(s) : 2 channels

  45. Channel layout : L R

  46. Sampling rate : 48.0 kHz

  47. Frame rate : 31.250 FPS (1536 SPF)

  48. Compression mode : Lossy

  49. Stream size : 242 MiB (1%)

  50. Service kind : Complete Main

  51. Default : Yes

  52. Alternate group : 1




复制代码



文件下载


除非特别注明,本文『简单爱[国语配音/中文字幕].Love.Simply.2014.2160p.WEB-DL.H265.DD2.0 18.39GB』来源于互联网机器人自动抓取,非本站原创。 浮游电影网不对本文拥有版权,如有侵犯,请联系邮箱:fuyouu#yandex.com[#换成@]投诉。我们会在15个工作日内删除。 但烦请转载时请标明出处:“本文转载于『浮游电影网』,原文地址:https://www.fuyouu.com/14668.html

评论吧骚年!

发表你的见解   

昵称*

E-mail*(建议输入,以便收到博主回复的提示邮件)

验证码*

您可以使用eMule或eMule Mod(Windows)、aMule(Win、Linux、Mac)等软件下载eD2k链接。。
eMule收藏集(.emulecollection)文件是您选中的所有链接的列表文件。eMule可以直接下载它们。
按住SHIFT键选择可以选中多个选择框。
可用文件名和大小选择器来选择文件。
文件名选择器帮您根据文件名称或后缀来选择文件。不分大小写。
符号使用:
和:空格( )、+
不包含:-
或:|
转义:一对英文引号("");
匹配开头:^
匹配结尾:$
例如:
选中所有名称中包含有“eMule”或“0.49c”字眼,但不包含有“exe”字眼的:emule|0.49c -exe
选中所有名称的开头是“eMule”,结尾是“0.49c”的:^emule 0.49c$
选中所有名称中带有“eMule 0.49c”的(必须是“eMule 0.49c”,中间没有别的字符,不能是“eMule fake 0.49c”),需要转义:"emule 0.49c"
大小选择器帮您根据文件大小选择文件。