当前位置: 首页 >> 国产电影 >> 江湖儿女[国语配音/中文字幕].Ash.is.Purest.White.2018.1080p.BluRay.x265.10bit.DTS 6.84GB >> 正文

江湖儿女[国语配音/中文字幕].Ash.is.Purest.White.2018.1080p.BluRay.x265.10bit.DTS 6.84GB

2021年09月30日 13:53:51     电影发布:来源于网络     电影分类:国产电影     评论(0)    

江湖儿女[国语配音/中文字幕].Ash.is.Purest.White.2018.1080p.BluRay.x265.10bit.DTS 6.84GB 犯罪片 爱情片 国产电影  第1张

◎译 名 江湖儿女 / 金钱与爱情 / 灰烬是最洁白的 / Ash is Purest White / Money & Love

◎年 代 2018

◎产 地 中国大陆 / 法国 / 日本

◎类 别 爱情 / 犯罪

◎语 言 汉语普通话 / 山西方言 / 湖北方言 / 重庆方言

◎上映日期 2018-09-21(中国大陆) / 2018-05-11(戛纳电影节)

◎IMDb链接 https://www.imdb.com/title/tt7298400/

◎豆瓣评分 7.6/10 (257476人评价)

◎豆瓣链接 https://movie.douban.com/subject/26972258/

◎片 长 137分钟(中国大陆)

◎导 演 贾樟柯 Zhangke Jia (id:1274261)

◎编 剧 贾樟柯 Zhangke Jia (id:1274261)

◎演 员 赵涛 Tao Zhao (id:1005985)

廖凡 Fan Liao (id:1007401)

徐峥 Zheng Xu (id:1274297)

梁嘉艳 Casper Liang (id:1391457)

刁亦男 Yi'nan Diao (id:1276173)

张一白 Yibai Zhang (id:1275554)

丁嘉丽 Jiali Ding (id:1038974)

张译 Yi Zhang (id:1274761)

董子健 Zijian Dong (id:1330472)

李宣 Xuan Li (id:1399994)

查娜 Chana (id:1401042)

冯家妹 Jiamei Feng (id:1337324)

康亢 Kang Kang (id:1401220)

张晓军 Xiaojun Zhang (id:1449152)

柳敏 Min Liu (id:1353879)

王谭 Tan Wang (id:1401218)

原文倩 Wenqian Yuan (id:1352320)

冯小刚 Xiaogang Feng (id:1274255)

翟永明 Yongming Zhai (id:1379247)

王中磊 Zhonglei Wang (id:1276037)

市山尚三 Shozo Ichiyama (id:1329078)

纳塔那·卡米兹 Nathana?l Karmitz (id:1338801)

王中军 Zhongjun Wang (id:1276036)

任仲伦 Zhonglun Ren (id:1333045)

贾樟柯 Zhangke Jia (id:1274261)

董平 Ping Dong (id:1380636)

刘歌 Ge Liu (id:1401219)

傅若清 Ruoqing Fu (id:1417588)

林强 Giong Lim (id:1020087)

帕斯卡尔·迈尔 Pascal Mayer (id:1391458)

谭维维 Weiwei Tan (id:1316545)

董冬冬 Dongdong Dong (id:1348747)

埃里克·戈蒂耶 Eric Gautier (id:1284627)

黄志明 Wong Chi-Ming (id:1398895)

马修·拉克劳 Matthieu Laclau (id:1335023)

刘维新 Weixin Liu (id:1316896)

王晶 Jing Wang (id:1335759)

张阳 Yang Zhang (id:1378375)

汤尼·雷恩 Tony Rayns (id:1324601)

余力为 Nelson Yu Lik-wai (id:1166303)

黄海 Hai Huang (id:1401245)

◎标 签 社会 / 中国大陆 / 人性 / 文艺 / 剧情 / 爱情 / 2018 / 犯罪

◎简 介

故事开始于2001年的山西大同,巧巧(赵涛 饰)和斌斌(廖凡 饰)相恋多年,巧巧一心希望能够和斌斌成家过安稳的生活,但斌斌身为当地的大佬,有着自己更高远的志向。一场意外中,斌斌遭人暗算危在旦夕,巧巧拿着斌斌私藏的手枪挺身而出救了斌斌,自己却因为非法持枪而被判处了五年的监禁。

一晃眼五年过去,出狱后的巧巧发现整个世界都发生了翻天覆地的变化,唯一不变的是她对斌斌真挚的感情。巧巧跋山涉水寻找斌斌的下落,但此时的斌斌早已经失去了往日的锋芒,而且身边已有了新的女友。身无分文的巧巧靠着自己的智慧摸爬滚打,终于为自己挣得了一片天地。

◎获奖情况 (共11项)

第71届戛纳电影节 (2018)

主竞赛单元 金棕榈奖(提名)

└──贾樟柯 (id:1274261)

第55届台北金马影展 (2018)

金马奖 最佳女主角(提名)

└──赵涛 (id:1005985)

第38届香港电影金像奖 (2019)

最佳两岸华语电影(提名)

└──贾樟柯 (id:1274261)

第13届亚洲电影大奖 (2019)

最佳女主角(提名)

└──赵涛 (id:1005985)

最佳编剧

└──贾樟柯 (id:1274261)

第22届英国独立电影奖 (2019)

最佳外国独立电影(提名)

第54届美国国家影评人协会奖 (2020)

最佳女主角(提名)

└──赵涛 (id:1005985)

第26届北京大学生电影节 (2019)

最佳影片奖(提名)

最佳导演奖(提名)

└──贾樟柯 (id:1274261)

最佳男演员奖(提名)

└──廖凡 (id:1007401)

第5届豆瓣电影年度榜单 (2018)

评分最高的爱情片(提名)

  1. ##### MediaInfo ######

  2. General

  3. Unique ID : 37489294989391698299462549549984427380 (0x1C342CF2E7222D1802AD085FA2E2AD74)

  4. Complete name : [email protected]Q.COM.mkv

  5. Format : Matroska

  6. Format version : Version 4

  7. File size : 6.84 GiB

  8. Duration : 2 h 16 min

  9. Overall bit rate : 7 200 kb/s

  10. Movie name : Ash is Purest White 2018

  11. Encoded date : UTC 2021-09-28 05:05:21

  12. Writing application : mkvmerge v61.0.0 ('So') 64-bit

  13. Writing library : libebml v1.4.2 + libmatroska v1.6.4

  14. Cover : Yes

  15. Attachments : cover.jpg


  16. Video

  17. ID : 1

  18. Format : HEVC

  19. Format/Info : High Efficiency Video Coding

  20. Format profile : Main [email protected]@Main

  21. Codec ID : V_MPEGH/ISO/HEVC

  22. Duration : 2 h 16 min

  23. Bit rate : 5 674 kb/s

  24. Width : 1 920 pixels

  25. Height : 1 036 pixels

  26. Display aspect ratio : 1.85:1

  27. Frame rate mode : Constant

  28. Frame rate : 23.976 (24000/1001/53354) FPS

  29. Color space : YUV

  30. Chroma subsampling : 4:2:0

  31. Bit depth : 10 bits

  32. Bits/(Pixel*Frame) : 0.119

  33. Stream size : 5.39 GiB (79%)

  34. Writing library : x265 3.5+2-g2b25c9ba0+45:[Windows][GCC 10.2.0][64 bit] Yuuki 10bit+8bit+12bit

  35. Encoding settings : rc=crf / crf=18.5000 / qcomp=0.60 / qpstep=4 / stats-write=0 / stats-read=0 / no-lossless / no-cu-lossless / aq-mode=3 / aq-strength=0.90 / cbqpoffs=0 / crqpoffs=0 / ipratio=1.40 / pbratio=1.30 / psy-rd=2.00 / psy-rdoq=0.00 / deblock=0:0 / ref=6 / limit-refs=1 / no-limit-modes / bframes=8 / b-adapt=2 / bframe-bias=0 / b-pyramid / b-intra / weightp / weightb / min-keyint=24 / max-keyint=240 / rc-lookahead=24 / gop-lookahead=0 / NTMzNTQ=uuDQuD2mJt9fsCf / scenecut=40 / hist-scenecut=0 / radl=0 / max-cu-size=64 / min-cu-size=8 / me=3 / subme=7 / merange=48 / rdoq-level=0 / rd=4 / rdpenalty=0 / dynamic-rd=0.00 / no-rd-refine / ----- / cutree / sao / no-rect / no-amp / no-open-gop / wpp / no-pmode / no-pme / no-psnr / no-ssim / nr-intra=0 / nr-inter=0 / no-constrained-intra / no-strong-intra-smoothing / max-tu-size=32 / tu-inter-depth=1 / tu-intra-depth=1 / limit-tu=0 / qg-size=32 / qpmax=69 / qpmin=0 / ----- / cpuid=533541111039 / frame-threads=4 / numa-pools=+ / log-level=2 / input-csp=1 / input-res=1920x1036 / interlace=0 / level-idc=0 / high-tier=1 / uhd-bd=0 / no-allow-non-conformance / repeat-headers / aud / no-hrd / info / hash=0 / no-temporal-layers / lookahead-slices=0 / no-splice / no-intra-refresh / no-ssim-rd / signhide / no-tskip / max-merge=3 / temporal-mvp / no-frame-dup / no-hme / no-analyze-src-pics / no-sao-non-deblock / selective-sao=4 / early-skip / rskip / no-fast-intra / no-tskip-fast / no-splitrd-skip / zone-count=0 / no-strict-cbr / no-rc-grain / no-const-vbv / sar=0 / overscan=0 / videoformat=5 / range=0 / colorprim=2 / transfer=2 / colormatrix=2 / chromaloc=0 / display-window=0 / cll=0,0 / min-luma=0 / max-luma=1023 / log2-max-poc-lsb=8 / vui-timing-info / vui-hrd-info / slices=1 / no-opt-qp-pps / no-opt-ref-list-length-pps / no-multi-pass-opt-rps / scenecut-bias=0.05 / hist-threshold=0.03 / no-opt-cu-delta-qp / no-aq-motion / no-hdr10 / no-hdr10-opt / no-dhdr10-opt / no-idr-recovery-sei / analysis-reuse-level=0 / analysis-save-reuse-level=0 / analysis-load-reuse-level=0 / scale-factor=0 / refine-intra=0 / refine-inter=0 / refine-mv=1 / refine-ctu-distortion=0 / no-limit-sao / ctu-info=0 / no-lowpass-dct / refine-analysis-type=0 / copy-pic=1 / max-ausize-factor=1.0 / no-dynamic-refine / no-single-sei / no-hevc-aq / no-svt / no-field / qp-adaptation-range=1.00 / scenecut-aware-qp=0conformance-window-offsets / right=0 / bottom=0 / NTMzNTQ= / decoder-max-rate=0 / no-vbv-live-multi-pass

  36. Default : Yes

  37. Forced : No


  38. Audio

  39. ID : 2

  40. ID in the original source medium : 4352 (0x1100)

  41. Format : DTS

  42. Format/Info : Digital Theater Systems

  43. Codec ID : A_DTS

  44. Duration : 2 h 16 min

  45. Bit rate mode : Constant

  46. Bit rate : 1 509 kb/s

  47. Channel(s) : 6 channels

  48. Channel layout : C L R Ls Rs LFE

  49. Sampling rate : 48.0 kHz

  50. Frame rate : 93.750 FPS (512 SPF)

  51. Bit depth : 24 bits

  52. Compression mode : Lossy

  53. Stream size : 1.43 GiB (21%)

  54. Title : Mandarin

  55. Language : Chinese

  56. Default : Yes

  57. Forced : No

  58. Original source medium : Blu-ray


  59. Text #1

  60. ID : 3

  61. ID in the original source medium : 4608 (0x1200)

  62. Format : PGS

  63. Muxing mode : zlib

  64. Codec ID : S_HDMV/PGS

  65. Codec ID/Info : Picture based subtitle format used on BDs/HD-DVDs

  66. Duration : 2 h 12 min

  67. Bit rate : 13.9 kb/s

  68. Count of elements : 2179

  69. Stream size : 13.1 MiB (0%)

  70. Title : chs

  71. Language : Chinese

  72. Default : No

  73. Forced : No

  74. Original source medium : Blu-ray


  75. Text #2

  76. ID : 4

  77. ID in the original source medium : 4609 (0x1201)

  78. Format : PGS

  79. Muxing mode : zlib

  80. Codec ID : S_HDMV/PGS

  81. Codec ID/Info : Picture based subtitle format used on BDs/HD-DVDs

  82. Duration : 2 h 12 min

  83. Bit rate : 14.1 kb/s

  84. Count of elements : 2179

  85. Stream size : 13.3 MiB (0%)

  86. Title : cht

  87. Language : Chinese

  88. Default : No

  89. Forced : No

  90. Original source medium : Blu-ray


  91. Menu

  92. 00:00:00.000 : Chapter 01

  93. 00:08:42.980 : Chapter 02

  94. 00:17:09.611 : Chapter 03

  95. 00:27:27.354 : Chapter 04

  96. 00:37:16.484 : Chapter 05

  97. 00:45:38.068 : Chapter 06

  98. 00:51:47.020 : Chapter 07

  99. 00:57:05.171 : Chapter 08

  100. 01:07:54.111 : Chapter 09

  101. 01:19:02.654 : Chapter 10

  102. 01:33:24.515 : Chapter 11

  103. 01:45:31.241 : Chapter 12

  104. 01:56:59.929 : Chapter 13

  105. 02:08:26.115 : Chapter 14


文件下载


除非特别注明,本文『江湖儿女[国语配音/中文字幕].Ash.is.Purest.White.2018.1080p.BluRay.x265.10bit.DTS 6.84GB』来源于互联网机器人自动抓取,非本站原创。 浮游电影网不对本文拥有版权,如有侵犯,请联系邮箱:fuyouu#yandex.com[#换成@]投诉。我们会在15个工作日内删除。 但烦请转载时请标明出处:“本文转载于『浮游电影网』,原文地址:https://www.fuyouu.com/14657.html

评论吧骚年!

发表你的见解   

昵称*

E-mail*(建议输入,以便收到博主回复的提示邮件)

验证码*

您可以使用eMule或eMule Mod(Windows)、aMule(Win、Linux、Mac)等软件下载eD2k链接。。
eMule收藏集(.emulecollection)文件是您选中的所有链接的列表文件。eMule可以直接下载它们。
按住SHIFT键选择可以选中多个选择框。
可用文件名和大小选择器来选择文件。
文件名选择器帮您根据文件名称或后缀来选择文件。不分大小写。
符号使用:
和:空格( )、+
不包含:-
或:|
转义:一对英文引号("");
匹配开头:^
匹配结尾:$
例如:
选中所有名称中包含有“eMule”或“0.49c”字眼,但不包含有“exe”字眼的:emule|0.49c -exe
选中所有名称的开头是“eMule”,结尾是“0.49c”的:^emule 0.49c$
选中所有名称中带有“eMule 0.49c”的(必须是“eMule 0.49c”,中间没有别的字符,不能是“eMule fake 0.49c”),需要转义:"emule 0.49c"
大小选择器帮您根据文件大小选择文件。