当前位置: 首页 >> 国产电影 >> 恋爱101度[国语配音/中文字幕].True.Love.2018.2160p.WEB-DL.H265.DD2.0 20.13GB >> 正文

恋爱101度[国语配音/中文字幕].True.Love.2018.2160p.WEB-DL.H265.DD2.0 20.13GB

2021年09月30日 13:51:35     电影发布:来源于网络     电影分类:国产电影     评论(0)    

恋爱101度[国语配音/中文字幕].True.Love.2018.2160p.WEB DL.H265.DD2.0 20.13GB 爱情片 喜剧片 国产电影  第1张

◎译 名 True Love

◎片 名 恋爱101度

◎年 代 2018

◎产 地 中国大陆

◎类 别 喜剧 / 爱情

◎语 言 汉语普通话

◎上映日期 2018-06-29(中国大陆)

◎豆瓣评分 /10 from 0 users

◎豆瓣链接 https://movie.douban.com/subject/26951955/

◎片 长 98分钟

◎导 演 郑庆严 Qingyan Zheng

◎编 剧 张振林 Zhenlin Zhang

◎主 演 吴烨 Ye Wu

吕明俊 Mingjun Lü

吴晴 Qing Wu

周一诺 Yinuo Zzhou

王妍兮 Yanxi Wang

陈菲 Fei Chen

文祥 Xiang Wen

黄一山 Gabriel Wong

◎标 签 爱情 | 2018 | 喜剧 | 中国 | 大陆 | 国产电影 | 大陆电影 | 中国大陆

◎简 介

电影《101度》讲述现代都市里一对年轻恋人的幽默爱情故事,电影男主人公王俊童年时家境生活非常窘迫,从小就特别抠门,所以相亲都已失败而告终,有一天做梦梦到和位美丽的女孩举办婚礼,神父竟然是已故的父亲,因此决定改掉抠门的习惯。当他再次相亲的时候,抠门的毛病又犯了,让女孩在众人面前很没面子,女孩决定和她闺蜜一块报复男主,当女主在和男主交往过程中多次戏耍男主,身心疲惫的男主想要放弃他,但他还是坚持下来了,经过了解后女主喜欢上了男主,准备展开轰轰烈烈的爱情时,男主老板的侄女却一脚插进来,而同时女主母亲心脏病发作需要巨款,家里又被茶商讨债,走投无路时,男主母亲伸出援助之手,老板侄女多次诱惑男主都未得逞,最终选择放弃男主。整个剧情当中一次次邂逅、误解、幽默、诙谐、才引发了让人啼笑皆非的爱情故事。

  1. ##### MediaInfo ######

  2. General

  3. Complete name : 恋爱101度[email protected]

  4. Format : MPEG-4

  5. Format profile : Base Media

  6. Codec ID : isom (isom/iso2/mp41)

  7. File size : 20.1 GiB

  8. Duration : 1 h 38 min

  9. Overall bit rate : 29.3 Mb/s

  10. Writing application : OurTV Multimedia Platform


  11. Video

  12. ID : 1

  13. Format : HEVC

  14. Format/Info : High Efficiency Video Coding

  15. Format profile : [email protected]@High

  16. Codec ID : hev1

  17. Codec ID/Info : High Efficiency Video Coding

  18. Duration : 1 h 38 min

  19. Bit rate : 28.9 Mb/s

  20. Width : 3 840 pixels

  21. Height : 2 160 pixels

  22. Display aspect ratio : 16:9

  23. Frame rate mode : Constant

  24. Frame rate : 25.000 FPS

  25. Color space : YUV

  26. Chroma subsampling : 4:2:0

  27. Bit depth : 8 bits

  28. Bits/(Pixel*Frame) : 0.139

  29. Stream size : 19.9 GiB (99%)

  30. Writing library : PONTUS-series

  31. Color range : Limited

  32. Codec configuration box : hvcC


  33. Audio

  34. ID : 2

  35. Format : AC-3

  36. Format/Info : Audio Coding 3

  37. Commercial name : Dolby Digital

  38. Codec ID : ac-3

  39. Duration : 1 h 38 min

  40. Bit rate mode : Constant

  41. Bit rate : 384 kb/s

  42. Channel(s) : 2 channels

  43. Channel layout : L R

  44. Sampling rate : 48.0 kHz

  45. Frame rate : 31.250 FPS (1536 SPF)

  46. Compression mode : Lossy

  47. Stream size : 270 MiB (1%)

  48. Service kind : Complete Main

  49. Default : Yes

  50. Alternate group : 1




复制代码



文件下载


除非特别注明,本文『恋爱101度[国语配音/中文字幕].True.Love.2018.2160p.WEB-DL.H265.DD2.0 20.13GB』来源于互联网机器人自动抓取,非本站原创。 浮游电影网不对本文拥有版权,如有侵犯,请联系邮箱:fuyouu#yandex.com[#换成@]投诉。我们会在15个工作日内删除。 但烦请转载时请标明出处:“本文转载于『浮游电影网』,原文地址:https://www.fuyouu.com/14655.html

评论吧骚年!

发表你的见解   

昵称*

E-mail*(建议输入,以便收到博主回复的提示邮件)

验证码*

您可以使用eMule或eMule Mod(Windows)、aMule(Win、Linux、Mac)等软件下载eD2k链接。。
eMule收藏集(.emulecollection)文件是您选中的所有链接的列表文件。eMule可以直接下载它们。
按住SHIFT键选择可以选中多个选择框。
可用文件名和大小选择器来选择文件。
文件名选择器帮您根据文件名称或后缀来选择文件。不分大小写。
符号使用:
和:空格( )、+
不包含:-
或:|
转义:一对英文引号("");
匹配开头:^
匹配结尾:$
例如:
选中所有名称中包含有“eMule”或“0.49c”字眼,但不包含有“exe”字眼的:emule|0.49c -exe
选中所有名称的开头是“eMule”,结尾是“0.49c”的:^emule 0.49c$
选中所有名称中带有“eMule 0.49c”的(必须是“eMule 0.49c”,中间没有别的字符,不能是“eMule fake 0.49c”),需要转义:"emule 0.49c"
大小选择器帮您根据文件大小选择文件。