当前位置: 首页 >> 日韩电影 >> 情书[国语配音/中文字幕].Love.Letter.1995.2160p.WEB-DL.H265.2Audio 4.01GB >> 正文

情书[国语配音/中文字幕].Love.Letter.1995.2160p.WEB-DL.H265.2Audio 4.01GB

2021年09月30日 13:47:30     电影发布:来源于网络     电影分类:日韩电影     评论(0)    

情书[国语配音/中文字幕].Love.Letter.1995.2160p.WEB DL.H265.2Audio 4.01GB 爱情片 剧情片 日韩电影  第1张

◎译 名 情书/Letters of Love/When I Close My Eyes

◎片 名 Love Letter

◎年 代 1995

◎产 地 日本

◎类 别 剧情 / 爱情

◎语 言 日语

◎上映日期 1995-03-25(日本) / 1999-03(中国大陆) / 2021-05-20(中国大陆重映)

◎豆瓣评分 8.9/10 from 862164 users

◎豆瓣链接 https://movie.douban.com/subject/1292220/

◎片 长 117分钟

◎导 演 岩井俊二 Shunji Iwai

◎编 剧 岩井俊二 Shunji Iwai

◎主 演 中山美穗 Miho Nakayama

丰川悦司 Etsushi Toyokawa

酒井美纪 Miki Sakai

柏原崇 Takashi Kashiwabara

范文雀 Bunjaku Han

篠原胜之 Katsuyuki Shinohara

铃木庆一 Keiichi Suzuki

田口智朗 Tomorowo Taguchi

加贺麻理子 Mariko Kaga

光石研 Ken Mitsuishi

铃木兰兰 Ranran Suzuki

盐见三省 Sansei Shiomi

中村久美 Kumi Nakamura

梅田凡乃 Hirokazu Umeda

长田江身子 Emiko Osada

小栗香织 Kaori Oguri

神户浩 Hiroshi Kanbe

酒井敏也 Toshiya Sakai

山口诗史 Shifumi Yamaguchi

山崎一 Hajime Yamazaki

德井优 Yu Tokui

武藤寿美 Sumi Mutoh

童自荣 Zirong Tong

◎标 签 爱情 | 日本 | 青春 | 文艺 | 经典 | 暗恋 | 初恋 | 唯美

◎简 介

日本神户某个飘雪的冬日,渡边博子(中山美穗)在前未婚夫藤井树的两周年祭日上又一次悲痛到不能自已。正因为无法抑制住对已逝恋人的思念,渡边博子在其中学同学录里发现“藤井树” 在小樽市读书时的地址时,依循着寄发了一封本以为是发往天国的情书。

不想不久渡边博子竟然收到署名为“藤 井树(中山美穗)”的回信,经过进一步了解,她知晓此藤井树是一个同她年纪相仿的女孩,且还是男友藤井树(柏原崇)少年时代的同班同学。为了多了解一些昔日恋人在中学时代的情况,渡边博子开始与女性藤井树书信往来。而藤井树在不断的回忆中,渐渐发现少年时代与她同名同姓的那个藤井树曾对自己藏了一腔柔情。

◎获奖情况

第19届日本电影学院奖 ?(1996)

话题奖最具话题演员奖 丰川悦司

最佳影片(提名)

最佳男配角(提名) 丰川悦司

最佳配乐(提名) 丽美

最佳新人 柏原崇?/?酒井美纪

第20届报知映画赏 ?(1995)

最佳导演 岩井俊二

最佳女主角 中山美穗

最佳男配角 丰川悦司

  1. ##### MediaInfo ######

  2. General

  3. Unique ID : 24790421397796487857637916158654019685 (0x12A676243C1CFBBEF034B61F5531F865)

  4. Complete name : 情书[email protected]

  5. Format : Matroska

  6. Format version : Version 4

  7. File size : 4.01 GiB

  8. Duration : 1 h 56 min

  9. Overall bit rate : 4 937 kb/s

  10. Encoded date : UTC 2021-09-29 11:05:52

  11. Writing application : mkvmerge v61.0.0 ('So') 64-bit

  12. Writing library : libebml v1.4.2 + libmatroska v1.6.4


  13. Video

  14. ID : 1

  15. Format : HEVC

  16. Format/Info : High Efficiency Video Coding

  17. Format profile : [email protected]@Main

  18. Codec ID : V_MPEGH/ISO/HEVC

  19. Duration : 1 h 56 min

  20. Bit rate : 4 683 kb/s

  21. Width : 3 840 pixels

  22. Height : 1 608 pixels

  23. Display aspect ratio : 2.40:1

  24. Frame rate mode : Constant

  25. Frame rate : 25.000 FPS

  26. Color space : YUV

  27. Chroma subsampling : 4:2:0

  28. Bit depth : 8 bits

  29. Bits/(Pixel*Frame) : 0.030

  30. Stream size : 3.80 GiB (95%)

  31. Default : Yes

  32. Forced : No


  33. Audio #1

  34. ID : 2

  35. Format : AAC LC

  36. Format/Info : Advanced Audio Codec Low Complexity

  37. Codec ID : A_AAC-2

  38. Duration : 1 h 56 min

  39. Bit rate : 192 kb/s

  40. Channel(s) : 2 channels

  41. Channel layout : L R

  42. Sampling rate : 44.1 kHz

  43. Frame rate : 43.066 FPS (1024 SPF)

  44. Compression mode : Lossy

  45. Stream size : 158 MiB (4%)

  46. Language : Chinese

  47. Default : Yes

  48. Forced : No


  49. Audio #2

  50. ID : 3

  51. Format : AAC LC

  52. Format/Info : Advanced Audio Codec Low Complexity

  53. Codec ID : A_AAC-2

  54. Duration : 1 h 56 min

  55. Bit rate : 62.1 kb/s

  56. Channel(s) : 2 channels

  57. Channel layout : L R

  58. Sampling rate : 44.1 kHz

  59. Frame rate : 43.066 FPS (1024 SPF)

  60. Compression mode : Lossy

  61. Stream size : 51.6 MiB (1%)

  62. Language : Japanese

  63. Default : Yes

  64. Forced : No




复制代码



文件下载


除非特别注明,本文『情书[国语配音/中文字幕].Love.Letter.1995.2160p.WEB-DL.H265.2Audio 4.01GB』来源于互联网机器人自动抓取,非本站原创。 浮游电影网不对本文拥有版权,如有侵犯,请联系邮箱:fuyouu#yandex.com[#换成@]投诉。我们会在15个工作日内删除。 但烦请转载时请标明出处:“本文转载于『浮游电影网』,原文地址:https://www.fuyouu.com/14652.html

评论吧骚年!

发表你的见解   

昵称*

E-mail*(建议输入,以便收到博主回复的提示邮件)

验证码*

您可以使用eMule或eMule Mod(Windows)、aMule(Win、Linux、Mac)等软件下载eD2k链接。。
eMule收藏集(.emulecollection)文件是您选中的所有链接的列表文件。eMule可以直接下载它们。
按住SHIFT键选择可以选中多个选择框。
可用文件名和大小选择器来选择文件。
文件名选择器帮您根据文件名称或后缀来选择文件。不分大小写。
符号使用:
和:空格( )、+
不包含:-
或:|
转义:一对英文引号("");
匹配开头:^
匹配结尾:$
例如:
选中所有名称中包含有“eMule”或“0.49c”字眼,但不包含有“exe”字眼的:emule|0.49c -exe
选中所有名称的开头是“eMule”,结尾是“0.49c”的:^emule 0.49c$
选中所有名称中带有“eMule 0.49c”的(必须是“eMule 0.49c”,中间没有别的字符,不能是“eMule fake 0.49c”),需要转义:"emule 0.49c"
大小选择器帮您根据文件大小选择文件。