当前位置: 首页 >> 海外电影 >> 发条橙[中文字幕].A.Clockwork.Orange.1971.2160p.HDR.UHD.BluRay.DTS-HD.MA.5.1.x265-10bit 17.00GB >> 正文

发条橙[中文字幕].A.Clockwork.Orange.1971.2160p.HDR.UHD.BluRay.DTS-HD.MA.5.1.x265-10bit 17.00GB

2021年09月30日 13:44:57     电影发布:来源于网络     电影分类:海外电影     评论(0)    

发条橙[中文字幕].A.Clockwork.Orange.1971.2160p.HDR.UHD.BluRay.DTS HD.MA.5.1.x265 10bit 17.00GB 科幻片 犯罪片 剧情片 海外电影  第1张

◎译 名 发条橙/发条桔子/发条橘子(台)/发条橙子

◎片 名 A Clockwork Orange

◎年 代 1971

◎产 地 英国,美国

◎类 别 剧情 / 科幻 / 犯罪

◎语 言 英语

◎上映日期 1971-12-19(纽约首映) / 1972-01-13(英国)

◎豆瓣评分 8.6/10 from 317545 users

◎豆瓣链接 https://movie.douban.com/subject/1292233/

◎片 长 136 分钟

◎导 演 斯坦利·库布里克 Stanley Kubrick

◎编 剧 斯坦利·库布里克 Stanley Kubrick / 安东尼·伯吉斯 Anthony Burgess

◎主 演 马尔科姆·麦克道威尔 Malcolm McDowell

帕特里克·马基 Patrick Magee

迈克尔·贝茨 Michael Bates

沃伦·克拉克 Warren Clarke

约翰·克莱夫 John Clive

阿德琳妮·柯瑞 Adrienne Corri

卡罗尔·杜瑞 Carl Duering

Paul Farrell Paul Farrell

克莱夫·弗朗西斯 Clive Francis

米里亚姆·卡琳 Miriam Karlin

奥布里·莫里斯 Aubrey Morris

戈弗雷·奎格利 Godfrey Quigley

Sheila Raynor Sheila Raynor

Madge Ryan Madge Ryan

约翰·萨维登特 John Savident

安东尼·夏普 Anthony Sharp

菲利普·斯通 Philip Stone

玛格丽特·提扎克 Margaret Tyzack

史蒂文·伯克夫 Steven Berkoff

Michael Tarn Michael Tarn

大卫·鲍罗斯 David Prowse

盖伊·布朗 Gaye Brown

Peter Burton Peter Burton

Vivienne Maya Vivienne Maya

Carol Drinkwater Carol Drinkwater

吉莲·希尔斯 Gillian Hills

Virginia Wetherell Virginia Wetherell

尼尔·威尔森 Neil Wilson

卡佳·韦思 Katya Wyeth

Robert Bruce Robert Bruce

乔治·库鲁里斯 George Coulouris

Helen Ford Helen Ford

Alan Harris Alan Harris

海因里希·希姆莱 Heinrich Himmler

Harry Hutchinson Harry Hutchinson

维克多·鲁兹 Viktor Lutze

帕特·罗奇 Pat Roach

Billy Russell Billy Russell

斯坦利·库布里克 Stanley Kubrick

◎标 签 暴力 | 库布里克 | 发条橙 | 英国 | 经典 | 青春 | 犯罪 | 人性

◎简 介

阿利斯(马尔科姆?麦克道尔)是一位无恶不作的少年,他的特殊喜好是边听贝多芬的交响曲边奸淫女性,某次他进入一所别墅抢劫一番后,打残了该别墅的主人——一名小说家,并用特殊喜好蹂躏了其妻子。后来因为杀了一名单身女子,阿利斯入狱并接受了特殊的人格治疗,出狱后,他对淫乐之事产生彻底的厌倦。

但当阿利斯回到家时,周围人群没改变对他的旧看法,在种种歧视的重压下,他跑到郊外一所别墅想喘口气,不想这所别墅正是他以前抢劫过的小说家的那所。而作为反政府组织首领的该小说家为了达到某种目的,软禁了阿利斯。当这件事暴露小说家被捕时,其手下为了对抗政府,扬言要把阿利斯恢复原来的性情,完全不理一旁的阿利斯大叫“我完全好了”。

◎获奖情况

第44届奥斯卡金像奖 ?(1972)

最佳影片(提名) 斯坦利·库布里克

最佳导演(提名) 斯坦利·库布里克

最佳改编剧本(提名) 斯坦利·库布里克

最佳剪辑(提名) 比尔·巴特勒

第33届威尼斯电影节 ?(1972)

帕西内蒂奖最佳外国电影 斯坦利·库布里克

  1. ##### MediaInfo ######

  2. General

  3. Unique ID : 274896154897813907038365297362688132274 (0xCECF12D982EDAFBBDD4FBBD66321C4B2)

  4. Complete name : A.Clockwork.[email protected]BBQDDQ.COM.mkv

  5. Format : Matroska

  6. Format version : Version 4

  7. File size : 17.0 GiB

  8. Duration : 2 h 16 min

  9. Overall bit rate mode : Variable

  10. Overall bit rate : 17.8 Mb/s

  11. Movie name : A Clockwork Orange 1971 2160p HDR UHD BluRay DTS-HD MA 5.1 [email protected]

  12. Encoded date : UTC 2021-09-28 06:03:57

  13. Writing application : mkvmerge v38.0.0 ('The Silent Type') 64-bit

  14. Writing library : libebml v1.3.9 + libmatroska v1.5.2


  15. Video

  16. ID : 1

  17. Format : HEVC

  18. Format/Info : High Efficiency Video Coding

  19. Format profile : Main [email protected]@High

  20. HDR format : SMPTE ST 2086, HDR10 compatible

  21. Codec ID : V_MPEGH/ISO/HEVC

  22. Duration : 2 h 16 min

  23. Bit rate : 13.9 Mb/s

  24. Width : 3 584 pixels

  25. Height : 2 160 pixels

  26. Display aspect ratio : 5:3

  27. Frame rate mode : Constant

  28. Frame rate : 23.976 (24000/1001/53354) FPS

  29. Color space : YUV

  30. Chroma subsampling : 4:2:0

  31. Bit depth : 10 bits

  32. Bits/(Pixel*Frame) : 0.075

  33. Stream size : 13.3 GiB (78%)

  34. Title : @HDSky

  35. Writing library : x265 - H.265/HEVC codec

  36. Default : Yes

  37. Forced : No

  38. Color range : Limited

  39. Color primaries : BT.2020

  40. Transfer characteristics : PQ

  41. Matrix coefficients : BT.2020 non-constant

  42. Mastering display color primaries : Display P3

  43. Mastering display luminance : min: 0.0020 cd/m2, max: 1000 cd/m2

  44. Maximum Content Light Level : 739 cd/m2

  45. Maximum Frame-Average Light Level : 331 cd/m2


  46. Audio

  47. ID : 2

  48. Format : DTS XLL

  49. Format/Info : Digital Theater Systems

  50. Commercial name : DTS-HD Master Audio

  51. Codec ID : A_DTS

  52. Duration : 2 h 16 min

  53. Bit rate mode : Variable

  54. Bit rate : 3 746 kb/s

  55. Channel(s) : 6 channels

  56. Channel layout : C L R Ls Rs LFE

  57. Sampling rate : 48.0 kHz

  58. Frame rate : 93.750 FPS (512 SPF)

  59. Bit depth : 24 bits

  60. Compression mode : Lossless

  61. Stream size : 3.57 GiB (21%)

  62. Title : English

  63. Language : English

  64. Default : Yes

  65. Forced : No


  66. Text #1

  67. ID : 3

  68. Format : PGS

  69. Muxing mode : zlib

  70. Codec ID : S_HDMV/PGS

  71. Codec ID/Info : Picture based subtitle format used on BDs/HD-DVDs

  72. Duration : 2 h 16 min

  73. Bit rate : 35.6 kb/s

  74. Count of elements : 3706

  75. Stream size : 34.7 MiB (0%)

  76. Title : ENG

  77. Language : English

  78. Default : Yes

  79. Forced : No


  80. Text #2

  81. ID : 4

  82. Format : PGS

  83. Muxing mode : zlib

  84. Codec ID : S_HDMV/PGS

  85. Codec ID/Info : Picture based subtitle format used on BDs/HD-DVDs

  86. Duration : 2 h 13 min

  87. Bit rate : 22.5 kb/s

  88. Count of elements : 2384

  89. Stream size : 21.5 MiB (0%)

  90. Title : CHT

  91. Language : Chinese

  92. Default : No

  93. Forced : No


  94. Text #3

  95. ID : 5

  96. Format : PGS

  97. Muxing mode : zlib

  98. Codec ID : S_HDMV/PGS

  99. Codec ID/Info : Picture based subtitle format used on BDs/HD-DVDs

  100. Duration : 2 h 15 min

  101. Bit rate : 25.6 kb/s

  102. Count of elements : 2290

  103. Stream size : 24.8 MiB (0%)

  104. Title : CHS

  105. Language : Chinese

  106. Default : No

  107. Forced : No


  108. Text #4

  109. ID : 6

  110. Format : PGS

  111. Muxing mode : zlib

  112. Codec ID : S_HDMV/PGS

  113. Codec ID/Info : Picture based subtitle format used on BDs/HD-DVDs

  114. Duration : 2 h 15 min

  115. Bit rate : 26.1 kb/s

  116. Count of elements : 2290

  117. Stream size : 25.3 MiB (0%)

  118. Title : CHT

  119. Language : Chinese

  120. Default : No

  121. Forced : No


  122. Text #5

  123. ID : 7

  124. Format : PGS

  125. Muxing mode : zlib

  126. Codec ID : S_HDMV/PGS

  127. Codec ID/Info : Picture based subtitle format used on BDs/HD-DVDs

  128. Duration : 2 h 13 min

  129. Bit rate : 32.2 kb/s

  130. Count of elements : 3376

  131. Stream size : 30.8 MiB (0%)

  132. Title : CHS

  133. Language : Chinese

  134. Default : No

  135. Forced : No


  136. Text #6

  137. ID : 8

  138. Format : PGS

  139. Muxing mode : zlib

  140. Codec ID : S_HDMV/PGS

  141. Codec ID/Info : Picture based subtitle format used on BDs/HD-DVDs

  142. Duration : 2 h 13 min

  143. Bit rate : 32.8 kb/s

  144. Count of elements : 3376

  145. Stream size : 31.3 MiB (0%)

  146. Title : CHT

  147. Language : Chinese

  148. Default : No

  149. Forced : No


  150. Text #7

  151. ID : 9

  152. Format : PGS

  153. Muxing mode : zlib

  154. Codec ID : S_HDMV/PGS

  155. Codec ID/Info : Picture based subtitle format used on BDs/HD-DVDs

  156. Duration : 2 h 13 min

  157. Bit rate : 53.0 kb/s

  158. Count of elements : 3376

  159. Stream size : 50.7 MiB (0%)

  160. Title : CHS&ENG

  161. Language : Chinese

  162. Default : No

  163. Forced : No


  164. Text #8

  165. ID : 10

  166. Format : PGS

  167. Muxing mode : zlib

  168. Codec ID : S_HDMV/PGS

  169. Codec ID/Info : Picture based subtitle format used on BDs/HD-DVDs

  170. Duration : 2 h 13 min

  171. Bit rate : 53.6 kb/s

  172. Count of elements : 3376

  173. Stream size : 51.2 MiB (0%)

  174. Title : CHT&ENG

  175. Language : Chinese

  176. Default : No

  177. Forced : No


  178. Menu

  179. 00:00:00.000 : en:Chapter 01

  180. 00:02:16.009 : en:Chapter 02

  181. 00:04:26.975 : en:Chapter 03

  182. 00:07:31.367 : en:Chapter 04

  183. 00:08:57.452 : en:Chapter 05

  184. 00:13:20.716 : en:Chapter 06

  185. 00:16:45.754 : en:Chapter 07

  186. 00:20:01.450 : en:Chapter 08

  187. 00:25:46.795 : en:Chapter 09

  188. 00:28:04.307 : en:Chapter 10

  189. 00:29:03.199 : en:Chapter 11

  190. 00:33:18.246 : en:Chapter 12

  191. 00:36:29.561 : en:Chapter 13

  192. 00:43:31.190 : en:Chapter 14

  193. 00:47:20.045 : en:Chapter 15

  194. 00:52:56.005 : en:Chapter 16

  195. 00:55:29.451 : en:Chapter 17

  196. 01:01:18.715 : en:Chapter 18

  197. 01:07:19.744 : en:Chapter 19

  198. 01:11:12.850 : en:Chapter 20

  199. 01:15:32.944 : en:Chapter 21

  200. 01:19:15.375 : en:Chapter 22

  201. 01:23:58.198 : en:Chapter 23

  202. 01:26:17.881 : en:Chapter 24

  203. 01:28:08.198 : en:Chapter 25

  204. 01:31:52.590 : en:Chapter 26

  205. 01:35:54.372 : en:Chapter 27

  206. 01:39:29.921 : en:Chapter 28

  207. 01:42:22.136 : en:Chapter 29

  208. 01:49:34.859 : en:Chapter 30

  209. 02:01:08.261 : en:Chapter 31

  210. 02:04:02.184 : en:Chapter 32

  211. 02:07:36.523 : en:Chapter 33

  212. 02:12:32.985 : en:Chapter 34

  213. 02:13:55.277 : en:Chapter 35




复制代码



文件下载


除非特别注明,本文『发条橙[中文字幕].A.Clockwork.Orange.1971.2160p.HDR.UHD.BluRay.DTS-HD.MA.5.1.x265-10bit 17.00GB』来源于互联网机器人自动抓取,非本站原创。 浮游电影网不对本文拥有版权,如有侵犯,请联系邮箱:fuyouu#yandex.com[#换成@]投诉。我们会在15个工作日内删除。 但烦请转载时请标明出处:“本文转载于『浮游电影网』,原文地址:https://www.fuyouu.com/14650.html

评论吧骚年!

发表你的见解   

昵称*

E-mail*(建议输入,以便收到博主回复的提示邮件)

验证码*

您可以使用eMule或eMule Mod(Windows)、aMule(Win、Linux、Mac)等软件下载eD2k链接。。
eMule收藏集(.emulecollection)文件是您选中的所有链接的列表文件。eMule可以直接下载它们。
按住SHIFT键选择可以选中多个选择框。
可用文件名和大小选择器来选择文件。
文件名选择器帮您根据文件名称或后缀来选择文件。不分大小写。
符号使用:
和:空格( )、+
不包含:-
或:|
转义:一对英文引号("");
匹配开头:^
匹配结尾:$
例如:
选中所有名称中包含有“eMule”或“0.49c”字眼,但不包含有“exe”字眼的:emule|0.49c -exe
选中所有名称的开头是“eMule”,结尾是“0.49c”的:^emule 0.49c$
选中所有名称中带有“eMule 0.49c”的(必须是“eMule 0.49c”,中间没有别的字符,不能是“eMule fake 0.49c”),需要转义:"emule 0.49c"
大小选择器帮您根据文件大小选择文件。