当前位置: 首页 >> 国产电影 >> 悬崖[国语配音/中文字幕].The.Last.Judgment.2021.2160p.WEB-DL.H265.DDP5.1 9.02GB >> 正文

悬崖[国语配音/中文字幕].The.Last.Judgment.2021.2160p.WEB-DL.H265.DDP5.1 9.02GB

2021年09月29日 08:56:22     电影发布:来源于网络     电影分类:国产电影     评论(0)    

悬崖[国语配音/中文字幕].The.Last.Judgment.2021.2160p.WEB DL.H265.DDP5.1 9.02GB 悬疑片 喜剧片 剧情片 国产电影  第1张

◎译 名 The Last Judgment

◎片 名 悬崖

◎年 代 2021

◎产 地 中国大陆

◎类 别 剧情 / 喜剧 / 悬疑

◎语 言 汉语普通话

◎上映日期 2021-09-10(中国大陆)

◎豆瓣评分 /10 from 0 users

◎豆瓣链接 https://movie.douban.com/subject/30122648/

◎片 长 87分钟

◎导 演 韩志 Zhi Han

◎编 剧 刘娟娟 / 李娜 Na Li / 杜长泉

◎主 演 王迅 Xun Wang

李易祥 Yixiang Li

张磊 Lei Zhang

王佳佳 Jiajia Wang

刘洋 Yang Liu

刘超 Chao Liu

明子煜 Ziyu Ming

张婉儿 Waner Zhang

王槊 Shuo Wang

张蓓蓓 Beibei Zhang

◎标 签 悬疑 | 剧情 | 犯罪 | 喜剧 | 2021 | 大陆 | 中国 | 华语

◎简 介

在一座海边小城中,一位开着观光旅游车的单亲爸爸老余;一对一心求子的夫妻简如月、方达;一对一心想飞黄腾达的修车行兄弟……

这些生活在社会底层不同轨迹上的小人物,在一个台风天,阴差阳错的踏上了开往悬崖的夺命之旅。一群各怀?的?,在生死危机的悬崖边缘,死亡越来越近,时间一点点消逝,求生的机会越来越渺茫……他们该如何博弈仅存的生存机会?

  1. ##### MediaInfo ######

  2. General

  3. Unique ID : 19170913490970920058708313254498420119 (0xE6C2F02B9F66D870438072D49BC4597)

  4. Complete name : 悬崖[email protected]M.mp4

  5. Format : Matroska

  6. Format version : Version 4

  7. File size : 9.02 GiB

  8. Duration : 1 h 27 min

  9. Overall bit rate : 14.7 Mb/s

  10. Encoded date : UTC 2021-09-28 08:38:39

  11. Writing application : mkvmerge v61.0.0 ('So') 64-bit

  12. Writing library : libebml v1.4.2 + libmatroska v1.6.4

  13. FileExtension_Invalid : mkv mk3d mka mks


  14. Video

  15. ID : 1

  16. Format : HEVC

  17. Format/Info : High Efficiency Video Coding

  18. Format profile : [email protected]@Main

  19. Codec ID : V_MPEGH/ISO/HEVC

  20. Duration : 1 h 27 min

  21. Bit rate : 14.3 Mb/s

  22. Width : 3 840 pixels

  23. Height : 1 608 pixels

  24. Display aspect ratio : 2.40:1

  25. Frame rate mode : Constant

  26. Frame rate : 24.000 FPS

  27. Color space : YUV

  28. Chroma subsampling : 4:2:0

  29. Bit depth : 8 bits

  30. Bits/(Pixel*Frame) : 0.096

  31. Stream size : 8.74 GiB (97%)

  32. Default : Yes

  33. Forced : No


  34. Audio #1

  35. ID : 2

  36. Format : E-AC-3

  37. Format/Info : Enhanced AC-3

  38. Commercial name : Dolby Digital Plus

  39. Codec ID : A_EAC3

  40. Duration : 1 h 27 min

  41. Bit rate mode : Constant

  42. Bit rate : 256 kb/s

  43. Channel(s) : 6 channels

  44. Channel layout : L R C LFE Ls Rs

  45. Sampling rate : 48.0 kHz

  46. Frame rate : 31.250 FPS (1536 SPF)

  47. Compression mode : Lossy

  48. Stream size : 160 MiB (2%)

  49. Language : Chinese

  50. Service kind : Complete Main

  51. Default : Yes

  52. Forced : No


  53. Audio #2

  54. ID : 3

  55. Format : AAC LC

  56. Format/Info : Advanced Audio Codec Low Complexity

  57. Codec ID : A_AAC-2

  58. Duration : 1 h 27 min

  59. Bit rate : 192 kb/s

  60. Channel(s) : 2 channels

  61. Channel layout : L R

  62. Sampling rate : 44.1 kHz

  63. Frame rate : 43.066 FPS (1024 SPF)

  64. Compression mode : Lossy

  65. Stream size : 119 MiB (1%)

  66. Language : Chinese

  67. Default : Yes

  68. Forced : No




复制代码



文件下载


除非特别注明,本文『悬崖[国语配音/中文字幕].The.Last.Judgment.2021.2160p.WEB-DL.H265.DDP5.1 9.02GB』来源于互联网机器人自动抓取,非本站原创。 浮游电影网不对本文拥有版权,如有侵犯,请联系邮箱:fuyouu#yandex.com[#换成@]投诉。我们会在15个工作日内删除。 但烦请转载时请标明出处:“本文转载于『浮游电影网』,原文地址:https://www.fuyouu.com/14639.html

评论吧骚年!

发表你的见解   

昵称*

E-mail*(建议输入,以便收到博主回复的提示邮件)

验证码*

您可以使用eMule或eMule Mod(Windows)、aMule(Win、Linux、Mac)等软件下载eD2k链接。。
eMule收藏集(.emulecollection)文件是您选中的所有链接的列表文件。eMule可以直接下载它们。
按住SHIFT键选择可以选中多个选择框。
可用文件名和大小选择器来选择文件。
文件名选择器帮您根据文件名称或后缀来选择文件。不分大小写。
符号使用:
和:空格( )、+
不包含:-
或:|
转义:一对英文引号("");
匹配开头:^
匹配结尾:$
例如:
选中所有名称中包含有“eMule”或“0.49c”字眼,但不包含有“exe”字眼的:emule|0.49c -exe
选中所有名称的开头是“eMule”,结尾是“0.49c”的:^emule 0.49c$
选中所有名称中带有“eMule 0.49c”的(必须是“eMule 0.49c”,中间没有别的字符,不能是“eMule fake 0.49c”),需要转义:"emule 0.49c"
大小选择器帮您根据文件大小选择文件。