当前位置: 首页 >> 日韩电影 >> 小说之神[中文字幕].God.of.Novels.AKA.Our.Story.2020.BluRay.1080p.x265.10bit.DD/5.1.MNHD 3.34GB >> 正文

小说之神[中文字幕].God.of.Novels.AKA.Our.Story.2020.BluRay.1080p.x265.10bit.DD/5.1.MNHD 3.34GB

2021年09月29日 08:53:34     电影发布:来源于网络     电影分类:日韩电影     评论(0)    

小说之神[中文字幕].God.of.Novels.AKA.Our.Story.2020.BluRay.1080p.x265.10bit.DD/5.1.MNHD 3.34GB 剧情片 日韩电影  第1张

◎译 名 小说之神

◎片 名 小説の神様 君としか描けない物語

◎年 代 2020

◎产 地 日本

◎类 别 剧情

◎语 言 日语

◎上映日期 2020-10-02(日本)

◎豆瓣评分 5.2/10 from 717 users

◎豆瓣链接 https://movie.douban.com/subject/34463373/

◎片 长 107分钟

◎导 演 久保茂昭 Shigeaki Kubo

◎编 剧 蒲田哲朗 Tetsur? Kamata

◎主 演 佐藤大树 Taiki Sato

桥本环奈 Kanna Hashimoto

佐藤流司 Ryuji Sato

坂口涼太郎 Ryotaro Sakaguchi

片冈爱之助 Ainosuke Kataoka

和久井映见 Emi Wakui

山本未来 Mirai Yamamoto

川口和空 Kawaguchi Waku

柴田杏花 Kyoka Shibata

莉子 Riko

白石優愛 Yua Shiraishi

◎标 签 日本 | 桥本环奈 | 2020 | 青春 | 日本电影 | 日影 | 小说改编 | 橋本環奈

◎简 介

高中生千谷一也(佐藤大树 饰)是一名已经出道的小说家,可是近日里,他的作品在网络上遭到的恶评之声愈演愈烈,一也已经完全不知道该如何继续在写作的道路上走下去了。巧合的是,一也的同伴同学余绫诗凪(桥本环奈 饰)也是一名小说家,她的小说正在大受好评之中,照此情势看来,她的写作生涯未来一片光明。

一也的编辑策划了一个企划,那就是让已经过气的一也和炙手可热的余绫合作,创作出能够大卖的畅销作品。就这样,一个非常奇怪的组合诞生了。在合作的过程中,两人渐渐挖掘出了对方身上自己所没有的特质,默契感日渐上升,与此同时,余绫一直隐瞒的秘密也渐渐的浮出了水面。

  1. ##### MediaInfo ######

  2. General

  3. Unique ID : 92614413985968344231122900342929073174 (0x45ACE3274178FD091740A2BBD54BA416)

  4. Complete name : God.of.Nove[email protected]BBQDDQ.COM.mkv

  5. Format : Matroska

  6. Format version : Version 4

  7. File size : 3.34 GiB

  8. Duration : 1 h 46 min

  9. Overall bit rate : 4 479 kb/s

  10. Encoded date : UTC 2021-09-28 08:42:05

  11. Writing application : mkvmerge v59.0.0 ('Shining Star') 64-bit

  12. Writing library : libebml v1.4.2 + libmatroska v1.6.4


  13. Video

  14. ID : 1

  15. Format : HEVC

  16. Format/Info : High Efficiency Video Coding

  17. Format profile : Main [email protected]@High

  18. Codec ID : V_MPEGH/ISO/HEVC

  19. Duration : 1 h 46 min

  20. Bit rate : 3 680 kb/s

  21. Width : 1 920 pixels

  22. Height : 804 pixels

  23. Display aspect ratio : 2.40:1

  24. Frame rate mode : Constant

  25. Frame rate : 23.976 (24000/1001/53354) FPS

  26. Color space : YUV

  27. Chroma subsampling : 4:2:0

  28. Bit depth : 10 bits

  29. Bits/(Pixel*Frame) : 0.099

  30. Stream size : 2.74 GiB (82%)

  31. Writing library : x265 3.5+11-c8905a745:[Windows][MSVC 1929][64 bit] 10bit

  32. Encoding settings : cpuid=533541111039 / frame-threads=3 / numa-pools=8 / wpp / pmode / no-pme / no-psnr / no-ssim / log-level=2 / input-csp=1 / input-res=1920x804 / interlace=0 / total-frames=153394 / level-idc=0 / high-tier=1 / uhd-bd=0 / ref=6 / no-allow-non-conformance / no-repeat-headers / annexb / no-aud / no-eob / no-eos / no-hrd / info / hash=0 / no-temporal-layers / no-open-gop / min-keyint=1 / keyint=250 / gop-lookahead=0 / bframes=8 / b-adapt=2 / b-pyramid / bframe-bias=0 / rc-lookahead=100 / lookahead-slices=0 / NTMzNTQ=uuDQuD2mJt9fsCf / scenecut=40 / no-hist-scenecut / radl=0 / no-splice / no-intra-refresh / ctu=32 / min-cu-size=8 / no-rect / no-amp / max-tu-size=32 / tu-inter-depth=4 / tu-intra-depth=4 / limit-tu=0 / rdoq-level=2 / dynamic-rd=0.00 / no-ssim-rd / signhide / tskip / nr-intra=0 / nr-inter=0 / no-constrained-intra / strong-intra-smoothing / max-merge=5 / limit-refs=0 / no-limit-modes / me=3 / subme=7 / merange=57 / temporal-mvp / no-frame-dup / no-hme / weightp / weightb / no-analyze-src-pics / deblock=-3:-3 / no-sao / no-sao-non-deblock / rd=4 / selective-sao=0 / no-early-skip / no-rskip / no-fast-intra / no-tskip-fast / no-cu-lossless / b-intra / no-splitrd-skip / rdpenalty=0 / psy-rd=1.50 / psy-rdoq=1.00 / no-rd-refine / no-lossless / cbqpoffs=-2 / crqpoffs=-2 / rc=crf / crf=22.0 / qcomp=0.65 / qpstep=4 / stats-write=0 / stats-read=0 / vbv-maxrate=160000 / vbv-bufsize=160000 / vbv-init=0.9 / min-vbv-fullness=50.0 / max-vbv-fullness=80.0 / crf-max=0.0 / crf-min=0.0 / ipratio=1.30 / pbratio=1.20 / aq-mode=1 / aq-strength=1.00 / no-cutree / zone-count=0 / no-strict-cbr / qg-size=8 / no-rc-grain / qpmax=69 / qpmin=0 / no-const-vbv / sar=0 / overscan=0 / videoformat=5 / range=0 / colorprim=1 / transfer=1 / colormatrix=1 / chromaloc=0 / display-window=0 / cll=0,0 / min-luma=0 / max-luma=1023 / log2-max-poc-lsb=8 / vui-timing-info / vui-hrd-info / slices=1 / no-opt-qp-pps / no-opt-ref-list-length-pps / no-multi-pass-opt-rps / scenecut-bias=0.05 / hist-threshold=0.03 / no-opt-cu-delta-qp / no-aq-motion / no-hdr10 / no-hdr10-opt / no-dhdr10-opt / no-idr-recovery-sei / analysis-reuse-level=0 / analysis-save-reuse-level=0 / analysis-load-reuse-level=0 / scale-factor=0 / refine-intra=0 / refine-inter=0 / refine-mv=1 / refine-ctu-distortion=0 / no-limit-sao / ctu-info=0 / no-lowpass-dct / refine-analysis-type=0 / copy-pic=1 / max-ausize-factor=1.0 / no-dynamic-refine / no-single-sei / no-hevc-aq / no-svt / no-field / qp-adaptation-range=1.00 / scenecut-aware-qp=0conformance-window-offsets / right=0 / bottom=0 / NTMzNTQ= / decoder-max-rate=0 / no-vbv-live-multi-pass

  33. Default : Yes

  34. Forced : No

  35. Color range : Limited

  36. Color primaries : BT.709

  37. Transfer characteristics : BT.709

  38. Matrix coefficients : BT.709


  39. Audio

  40. ID : 2

  41. Format : E-AC-3

  42. Format/Info : Enhanced AC-3

  43. Commercial name : Dolby Digital Plus

  44. Codec ID : A_EAC3

  45. Duration : 1 h 46 min

  46. Bit rate mode : Constant

  47. Bit rate : 768 kb/s

  48. Channel(s) : 6 channels

  49. Channel layout : L R C LFE Ls Rs

  50. Sampling rate : 48.0 kHz

  51. Frame rate : 62.500 FPS (768 SPF)

  52. Compression mode : Lossy

  53. Stream size : 586 MiB (17%)

  54. Language : Japanese

  55. Service kind : Complete Main

  56. Default : Yes

  57. Forced : No


  58. Text #1

  59. ID : 3

  60. Format : PGS

  61. Muxing mode : zlib

  62. Codec ID : S_HDMV/PGS

  63. Codec ID/Info : Picture based subtitle format used on BDs/HD-DVDs

  64. Duration : 1 h 45 min

  65. Bit rate : 32.2 kb/s

  66. Count of elements : 2447

  67. Stream size : 24.3 MiB (1%)

  68. Title : CHS

  69. Language : Chinese

  70. Default : Yes

  71. Forced : No


  72. Text #2

  73. ID : 4

  74. Format : PGS

  75. Muxing mode : zlib

  76. Codec ID : S_HDMV/PGS

  77. Codec ID/Info : Picture based subtitle format used on BDs/HD-DVDs

  78. Duration : 1 h 45 min

  79. Bit rate : 32.7 kb/s

  80. Count of elements : 2447

  81. Stream size : 24.7 MiB (1%)

  82. Title : CHT

  83. Language : Chinese

  84. Default : Yes

  85. Forced : No


  86. Menu

  87. 00:00:00.000 : Chapter 01

  88. 00:11:26.352 : Chapter 02

  89. 00:18:35.030 : Chapter 03

  90. 00:24:12.701 : Chapter 04

  91. 00:34:21.017 : Chapter 05

  92. 00:37:45.596 : Chapter 06

  93. 00:50:54.384 : Chapter 07

  94. 01:02:38.671 : Chapter 08

  95. 01:13:33.158 : Chapter 09

  96. 01:24:55.590 : Chapter 10

  97. 01:34:51.268 : Chapter 11

  98. 01:40:56.383 : Chapter 12

  99. 01:46:28.799 : Chapter 13




复制代码



文件下载


除非特别注明,本文『小说之神[中文字幕].God.of.Novels.AKA.Our.Story.2020.BluRay.1080p.x265.10bit.DD/5.1.MNHD 3.34GB』来源于互联网机器人自动抓取,非本站原创。 浮游电影网不对本文拥有版权,如有侵犯,请联系邮箱:fuyouu#yandex.com[#换成@]投诉。我们会在15个工作日内删除。 但烦请转载时请标明出处:“本文转载于『浮游电影网』,原文地址:https://www.fuyouu.com/14638.html

评论吧骚年!

发表你的见解   

昵称*

E-mail*(建议输入,以便收到博主回复的提示邮件)

验证码*

您可以使用eMule或eMule Mod(Windows)、aMule(Win、Linux、Mac)等软件下载eD2k链接。。
eMule收藏集(.emulecollection)文件是您选中的所有链接的列表文件。eMule可以直接下载它们。
按住SHIFT键选择可以选中多个选择框。
可用文件名和大小选择器来选择文件。
文件名选择器帮您根据文件名称或后缀来选择文件。不分大小写。
符号使用:
和:空格( )、+
不包含:-
或:|
转义:一对英文引号("");
匹配开头:^
匹配结尾:$
例如:
选中所有名称中包含有“eMule”或“0.49c”字眼,但不包含有“exe”字眼的:emule|0.49c -exe
选中所有名称的开头是“eMule”,结尾是“0.49c”的:^emule 0.49c$
选中所有名称中带有“eMule 0.49c”的(必须是“eMule 0.49c”,中间没有别的字符,不能是“eMule fake 0.49c”),需要转义:"emule 0.49c"
大小选择器帮您根据文件大小选择文件。