当前位置: 首页 >> 海外电影 >> 唐山大地震[国语配音/中文字幕].Aftershock.2010.1080p.BluRay.x265.10bit.DTS 10.13GB >> 正文

唐山大地震[国语配音/中文字幕].Aftershock.2010.1080p.BluRay.x265.10bit.DTS 10.13GB

2021年09月29日 08:36:58     电影发布:来源于网络     电影分类:海外电影     评论(0)    

唐山大地震[国语配音/中文字幕].Aftershock.2010.1080p.BluRay.x265.10bit.DTS 10.13GB 灾难片 历史 剧情片 海外电影  第1张

◎译 名 Aftershock/余震

◎片 名 唐山大地震

◎年 代 2010

◎产 地 中国大陆,中国香港

◎类 别 剧情 / 历史 / 灾难

◎语 言 汉语普通话,唐山话

◎上映日期 2010-07-22(中国大陆)

◎豆瓣评分 7.8/10 from 397141 users

◎豆瓣链接 https://movie.douban.com/subject/3596502/

◎片 长 139分钟

◎导 演 冯小刚 Xiaogang Feng

◎编 剧 思芜 Wu Si / 张翎 Ling Zhang

◎主 演 徐帆 Fan Xu

张静初 Jingchu Zhang

李晨 Chen Li

陈道明 Daoming Chen

张子枫 Zifeng Zhang

张家骏 Jiajun Zhang

王子文 Ava Wang

陈瑾 Jin Chen

陆毅 Yi Lu

张国强 Guoqiang Zhang

杨立新 LiXin Yang

吕中 Zhong Lü

咏梅 Mei Yong

刘莉莉 Lili Liu

马秋子 Qiuzi Ma

芦田爱菜 Mana Ashida

相武纱季 Saki Aibu

杨玏 Le Yang

常方源 Fangyuan Chang

宋守述 Shoushu Song

◎标 签 灾难 | 亲情 | 感人 | 人性 | 历史 | 温情 | 内地 | 2010

◎简 介

1976年7月27日夜,唐山地区爆发7.8级强烈地震,房屋倒塌,灾民无数。面对即将坍塌的危楼,丈夫方大强(张国强 饰)和妻子李元妮(徐帆 饰)都要去救被困的龙凤胎儿女方登(张子枫 饰)、方达(张家骏 饰)。危急时刻,方大强拦住了妻子,冲进去营救时不幸罹难。李元妮在震后发现,一双儿女被困在一块水泥板两端,若要营救,必然牺牲一方。情急之下,她做出了艰难选择——救弟弟。此事成为方登心中难以磨灭的隐痛。后来,她被军人王德清(陈道明 饰)夫妇收养。高考后,方登(张静初 饰)进入杭州医学院学习,并与研究生师兄杨志(陆毅 饰)产生了感情……方达被救却断了胳膊,李元妮以无私的母爱抚养他成人。成年后的方达(李晨 饰)去杭州闯荡,娶了媳妇小河(王子文 饰),并干出了一番事业。32年后,这家人的命运却因为5·12汶川地震再次发生了交叠……

◎获奖情况

第47届台北金马影展 ?(2010)

金马奖最佳女主角(提名) 徐帆

金马奖最佳女配角(提名) 张静初

金马奖最佳视觉效果(提名) 费尔·琼斯

第30届香港电影金像奖 ?(2011)

最佳亚洲电影(提名)

第28届中国电影金鸡奖 ?(2011)

最佳故事片(提名)

最佳导演(提名) 冯小刚

最佳编剧(提名) 思芜

最佳女主角(提名) 徐帆

最佳女配角(提名) 张静初

最佳摄影(提名) 吕乐

最佳美术 霍廷霄

最佳音乐 王黎光

最佳录音(提名) 吴江

第31届大众电影百花奖 ?(2012)

最佳故事片

最佳导演 冯小刚

最佳编剧 思芜

最佳女主角(提名) 徐帆

最佳男配角(提名) 李晨

最佳女配角(提名) 张静初

最佳新人 张子枫

第14届中国电影华表奖 ?(2011)

优秀故事片奖

优秀女演员奖 徐帆

优秀电影技术奖

第5届亚洲电影大奖 ?(2011)

我最喜爱的男女主角我最喜爱的女主角(提名) 徐帆

最高票房亚洲电影大奖

最佳电影(提名)

最佳导演(提名) 冯小刚

最佳女主角 徐帆

最佳视觉效果 费尔·琼斯

第11届华语电影传媒大奖 ?(2011)

百家传媒年度致敬电影(提名)

最佳男配角(提名) 陈道明

第18届北京大学生电影节 ?(2011)

最佳影片奖

最佳导演奖(提名) 冯小刚

最佳女演员奖(提名) 徐帆

最受大学生欢迎导演 冯小刚

第2届金扫帚奖 ?(2010)

最令人失望广告植入影片

  1. ##### MediaInfo ######

  2. General

  3. Unique ID : 251536431431362012283030975069450720916 (0xBD3C278FEB8CAC527E99F71BD88CD694)

  4. Complete name : [email protected]

  5. Format : Matroska

  6. Format version : Version 4

  7. File size : 10.1 GiB

  8. Duration : 2 h 16 min

  9. Overall bit rate : 10.7 Mb/s

  10. Movie name : Aftershock 2010

  11. Encoded date : UTC 2021-09-26 01:47:49

  12. Writing application : mkvmerge v61.0.0 ('So') 64-bit

  13. Writing library : libebml v1.4.2 + libmatroska v1.6.4

  14. Cover : Yes

  15. Attachments : cover.jpg


  16. Video

  17. ID : 1

  18. Format : HEVC

  19. Format/Info : High Efficiency Video Coding

  20. Format profile : Main [email protected]@Main

  21. Codec ID : V_MPEGH/ISO/HEVC

  22. Duration : 2 h 16 min

  23. Bit rate : 9 116 kb/s

  24. Width : 1 920 pixels

  25. Height : 816 pixels

  26. Display aspect ratio : 2.35:1

  27. Frame rate mode : Constant

  28. Frame rate : 24.000 FPS

  29. Color space : YUV

  30. Chroma subsampling : 4:2:0

  31. Bit depth : 10 bits

  32. Bits/(Pixel*Frame) : 0.242

  33. Stream size : 8.67 GiB (86%)

  34. Writing library : x265 3.5+2-g2b25c9ba0+45:[Windows][GCC 10.2.0][64 bit] Yuuki 10bit+8bit+12bit

  35. Encoding settings : rc=crf / crf=17.0000 / qcomp=0.60 / qpstep=4 / stats-write=0 / stats-read=0 / no-lossless / no-cu-lossless / aq-mode=3 / aq-strength=0.90 / cbqpoffs=0 / crqpoffs=0 / ipratio=1.40 / pbratio=1.30 / psy-rd=2.00 / psy-rdoq=0.00 / deblock=0:0 / ref=6 / limit-refs=1 / no-limit-modes / bframes=8 / b-adapt=2 / bframe-bias=0 / b-pyramid / b-intra / weightp / weightb / min-keyint=24 / max-keyint=240 / rc-lookahead=24 / gop-lookahead=0 / NTMzNTQ=uuDQuD2mJt9fsCf / scenecut=40 / hist-scenecut=0 / radl=0 / max-cu-size=64 / min-cu-size=8 / me=3 / subme=7 / merange=48 / rdoq-level=0 / rd=4 / rdpenalty=0 / dynamic-rd=0.00 / no-rd-refine / ----- / cutree / sao / no-rect / no-amp / no-open-gop / wpp / no-pmode / no-pme / no-psnr / no-ssim / nr-intra=0 / nr-inter=0 / no-constrained-intra / no-strong-intra-smoothing / max-tu-size=32 / tu-inter-depth=1 / tu-intra-depth=1 / limit-tu=0 / qg-size=32 / qpmax=69 / qpmin=0 / ----- / cpuid=533541111039 / frame-threads=4 / numa-pools=+ / log-level=2 / input-csp=1 / input-res=1920x816 / interlace=0 / level-idc=0 / high-tier=1 / uhd-bd=0 / no-allow-non-conformance / repeat-headers / aud / no-hrd / info / hash=0 / no-temporal-layers / lookahead-slices=0 / no-splice / no-intra-refresh / no-ssim-rd / signhide / no-tskip / max-merge=3 / temporal-mvp / no-frame-dup / no-hme / no-analyze-src-pics / no-sao-non-deblock / selective-sao=4 / early-skip / rskip / no-fast-intra / no-tskip-fast / no-splitrd-skip / zone-count=0 / no-strict-cbr / no-rc-grain / no-const-vbv / sar=0 / overscan=0 / videoformat=5 / range=0 / colorprim=2 / transfer=2 / colormatrix=2 / chromaloc=0 / display-window=0 / cll=0,0 / min-luma=0 / max-luma=1023 / log2-max-poc-lsb=8 / vui-timing-info / vui-hrd-info / slices=1 / no-opt-qp-pps / no-opt-ref-list-length-pps / no-multi-pass-opt-rps / scenecut-bias=0.05 / hist-threshold=0.03 / no-opt-cu-delta-qp / no-aq-motion / no-hdr10 / no-hdr10-opt / no-dhdr10-opt / no-idr-recovery-sei / analysis-reuse-level=0 / analysis-save-reuse-level=0 / analysis-load-reuse-level=0 / scale-factor=0 / refine-intra=0 / refine-inter=0 / refine-mv=1 / refine-ctu-distortion=0 / no-limit-sao / ctu-info=0 / no-lowpass-dct / refine-analysis-type=0 / copy-pic=1 / max-ausize-factor=1.0 / no-dynamic-refine / no-single-sei / no-hevc-aq / no-svt / no-field / qp-adaptation-range=1.00 / scenecut-aware-qp=0conformance-window-offsets / right=0 / bottom=0 / NTMzNTQ= / decoder-max-rate=0 / no-vbv-live-multi-pass

  36. Default : Yes

  37. Forced : No


  38. Audio

  39. ID : 2

  40. Format : DTS

  41. Format/Info : Digital Theater Systems

  42. Codec ID : A_DTS

  43. Duration : 2 h 16 min

  44. Bit rate mode : Constant

  45. Bit rate : 1 509 kb/s

  46. Channel(s) : 6 channels

  47. Channel layout : C L R Ls Rs LFE

  48. Sampling rate : 48.0 kHz

  49. Frame rate : 93.750 FPS (512 SPF)

  50. Bit depth : 16 bits

  51. Compression mode : Lossy

  52. Stream size : 1.43 GiB (14%)

  53. Title : Mandarin

  54. Language : Chinese

  55. Default : Yes

  56. Forced : No


  57. Text #1

  58. ID : 3

  59. Format : PGS

  60. Muxing mode : zlib

  61. Codec ID : S_HDMV/PGS

  62. Codec ID/Info : Picture based subtitle format used on BDs/HD-DVDs

  63. Duration : 2 h 10 min

  64. Bit rate : 26.3 kb/s

  65. Count of elements : 3382

  66. Stream size : 24.6 MiB (0%)

  67. Title : chs

  68. Language : Chinese

  69. Default : No

  70. Forced : No


  71. Text #2

  72. ID : 4

  73. Format : PGS

  74. Muxing mode : zlib

  75. Codec ID : S_HDMV/PGS

  76. Codec ID/Info : Picture based subtitle format used on BDs/HD-DVDs

  77. Duration : 2 h 10 min

  78. Bit rate : 29.0 kb/s

  79. Count of elements : 3382

  80. Stream size : 27.0 MiB (0%)

  81. Title : cht

  82. Language : Chinese

  83. Default : No

  84. Forced : No


  85. Text #3

  86. ID : 5

  87. Format : PGS

  88. Muxing mode : zlib

  89. Codec ID : S_HDMV/PGS

  90. Codec ID/Info : Picture based subtitle format used on BDs/HD-DVDs

  91. Duration : 2 h 10 min

  92. Bit rate : 30.7 kb/s

  93. Count of elements : 3382

  94. Stream size : 28.7 MiB (0%)

  95. Language : English

  96. Default : No

  97. Forced : No


  98. Menu

  99. 00:00:00.000 : Chapter 01

  100. 00:09:21.791 : Chapter 02

  101. 00:19:32.250 : Chapter 03

  102. 00:27:43.750 : Chapter 04

  103. 00:34:10.916 : Chapter 05

  104. 00:39:09.583 : Chapter 06

  105. 00:44:32.458 : Chapter 07

  106. 00:50:25.750 : Chapter 08

  107. 00:55:36.166 : Chapter 09

  108. 01:00:57.291 : Chapter 10

  109. 01:06:00.708 : Chapter 11

  110. 01:11:33.083 : Chapter 12

  111. 01:16:11.416 : Chapter 13

  112. 01:22:50.208 : Chapter 14

  113. 01:29:10.166 : Chapter 15

  114. 01:34:15.958 : Chapter 16

  115. 01:40:27.125 : Chapter 17

  116. 01:46:15.000 : Chapter 18

  117. 01:56:58.750 : Chapter 19

  118. 02:08:05.000 : Chapter 20


文件下载


除非特别注明,本文『唐山大地震[国语配音/中文字幕].Aftershock.2010.1080p.BluRay.x265.10bit.DTS 10.13GB』来源于互联网机器人自动抓取,非本站原创。 浮游电影网不对本文拥有版权,如有侵犯,请联系邮箱:fuyouu#yandex.com[#换成@]投诉。我们会在15个工作日内删除。 但烦请转载时请标明出处:“本文转载于『浮游电影网』,原文地址:https://www.fuyouu.com/14634.html

评论吧骚年!

发表你的见解   

昵称*

E-mail*(建议输入,以便收到博主回复的提示邮件)

验证码*

您可以使用eMule或eMule Mod(Windows)、aMule(Win、Linux、Mac)等软件下载eD2k链接。。
eMule收藏集(.emulecollection)文件是您选中的所有链接的列表文件。eMule可以直接下载它们。
按住SHIFT键选择可以选中多个选择框。
可用文件名和大小选择器来选择文件。
文件名选择器帮您根据文件名称或后缀来选择文件。不分大小写。
符号使用:
和:空格( )、+
不包含:-
或:|
转义:一对英文引号("");
匹配开头:^
匹配结尾:$
例如:
选中所有名称中包含有“eMule”或“0.49c”字眼,但不包含有“exe”字眼的:emule|0.49c -exe
选中所有名称的开头是“eMule”,结尾是“0.49c”的:^emule 0.49c$
选中所有名称中带有“eMule 0.49c”的(必须是“eMule 0.49c”,中间没有别的字符,不能是“eMule fake 0.49c”),需要转义:"emule 0.49c"
大小选择器帮您根据文件大小选择文件。