当前位置: 首页 >> 国产电影 >> 小伟[国语音轨/中文字幕].All.About.ING.2019.1080p.BluRay.DTS.x265-10bit 6.68GB >> 正文

小伟[国语音轨/中文字幕].All.About.ING.2019.1080p.BluRay.DTS.x265-10bit 6.68GB

2021年09月29日 08:34:18     电影发布:来源于网络     电影分类:国产电影     评论(0)    

小伟[国语音轨/中文字幕].All.About.ING.2019.1080p.BluRay.DTS.x265 10bit 6.68GB 家庭片 剧情片 国产电影  第1张

◎译 名 All About ING/慕伶,一鸣,伟明

◎片 名 小伟

◎年 代 2019

◎产 地 中国大陆

◎类 别 剧情 / 家庭

◎语 言 粤语,汉语普通话

◎上映日期 2019-07-23(FIRST青年影展) / 2021-01-22(中国大陆)

◎豆瓣评分 7.6/10 from 29658 users

◎豆瓣链接 https://movie.douban.com/subject/26752564/

◎片 长 108分钟

◎导 演 黄梓 Zi Huang

◎编 剧 黄梓 Zi Huang

◎主 演 彭杏英 Janis Pang

薛立贤 Howard Sit

高翰文 Ko Hon Man

郭尔君 Alma Kwok

钟雨伦 Marick Chung

顾定轩 Zeno Koo

廖爱玲 Ellen Liu

◎标 签 家庭 | 亲情 | 粤语 | 剧情 | 中国大陆 | 中国 | 处女作 | 黄梓

◎简 介

一家三口的生活因父亲伟明被查出末期肝癌而改变。表面上平静的家庭被阴霾笼罩。妈妈慕伶扛起家,却得不到父子的体谅。儿子一鸣收到美国的大学录取通知书,但不敢告诉爸妈。他知道母亲不易,却不愿表现过多关心。父亲伟明则在迷雾之中暗自做出一个改变家庭命运的选择。

◎获奖情况

第23届上海国际电影节 ?(2020)

亚洲新人奖最佳影片(提名) 黄梓

第44届香港国际电影节 ?(2020)

新秀电影竞赛火鸟电影大奖(华语)(提名) 黄梓

第2届平遥国际电影展 ?(2018)

发展中电影计划·最佳导演 黄梓

第13届FIRST青年电影展 ?(2019)

竞赛最佳剧情长片(提名) 黄梓

竞赛评委会大奖-长片类 黄梓

  1. ##### MediaInfo ######

  2. General

  3. Unique ID : 149749710876944437207948666000855678921 (0x70A8BEC7A9DDB0D05034F9A8087A3FC9)

  4. Complete name : [email protected]mkv

  5. Format : Matroska

  6. Format version : Version 4

  7. File size : 6.68 GiB

  8. Duration : 1 h 48 min

  9. Overall bit rate : 8 826 kb/s

  10. Movie name : All About ING 2019 1080p BluRay DTS [email protected]

  11. Encoded date : UTC 2021-09-27 14:32:36

  12. Writing application : mkvmerge v38.0.0 ('The Silent Type') 64-bit

  13. Writing library : libebml v1.3.9 + libmatroska v1.5.2


  14. Video

  15. ID : 1

  16. Format : HEVC

  17. Format/Info : High Efficiency Video Coding

  18. Format profile : Main [email protected]@High

  19. Codec ID : V_MPEGH/ISO/HEVC

  20. Duration : 1 h 48 min

  21. Bit rate : 7 306 kb/s

  22. Width : 1 920 pixels

  23. Height : 1 012 pixels

  24. Display aspect ratio : 1.897

  25. Frame rate mode : Constant

  26. Frame rate : 25.000 FPS

  27. Color space : YUV

  28. Chroma subsampling : 4:2:0

  29. Bit depth : 10 bits

  30. Bits/(Pixel*Frame) : 0.150

  31. Stream size : 5.53 GiB (83%)

  32. Title : @HDSky

  33. Writing library : x265 - H.265/HEVC codec

  34. Default : Yes

  35. Forced : No


  36. Audio

  37. ID : 2

  38. Format : DTS

  39. Format/Info : Digital Theater Systems

  40. Codec ID : A_DTS

  41. Duration : 1 h 48 min

  42. Bit rate mode : Constant

  43. Bit rate : 1 509 kb/s

  44. Channel(s) : 6 channels

  45. Channel layout : C L R Ls Rs LFE

  46. Sampling rate : 48.0 kHz

  47. Frame rate : 93.750 FPS (512 SPF)

  48. Bit depth : 24 bits

  49. Compression mode : Lossy

  50. Stream size : 1.14 GiB (17%)

  51. Title : Mandarin

  52. Language : Chinese

  53. Default : Yes

  54. Forced : No


  55. Text

  56. ID : 3

  57. Format : PGS

  58. Muxing mode : zlib

  59. Codec ID : S_HDMV/PGS

  60. Codec ID/Info : Picture based subtitle format used on BDs/HD-DVDs

  61. Duration : 1 h 43 min

  62. Bit rate : 15.6 kb/s

  63. Count of elements : 1542

  64. Stream size : 11.5 MiB (0%)

  65. Title : CHS

  66. Language : Chinese

  67. Default : Yes

  68. Forced : No


  69. Menu

  70. 00:00:00.000 : en:Chapter 01

  71. 00:11:35.560 : en:Chapter 02

  72. 00:24:23.160 : en:Chapter 03

  73. 00:31:12.720 : en:Chapter 04

  74. 00:40:47.160 : en:Chapter 05

  75. 00:51:32.840 : en:Chapter 06

  76. 00:59:56.400 : en:Chapter 07

  77. 01:09:29.520 : en:Chapter 08

  78. 01:20:40.880 : en:Chapter 09

  79. 01:32:30.760 : en:Chapter 10

  80. 01:37:30.760 : en:Chapter 11

  81. 01:43:31.600 : en:Chapter 12




复制代码



文件下载


除非特别注明,本文『小伟[国语音轨/中文字幕].All.About.ING.2019.1080p.BluRay.DTS.x265-10bit 6.68GB』来源于互联网机器人自动抓取,非本站原创。 浮游电影网不对本文拥有版权,如有侵犯,请联系邮箱:fuyouu#yandex.com[#换成@]投诉。我们会在15个工作日内删除。 但烦请转载时请标明出处:“本文转载于『浮游电影网』,原文地址:https://www.fuyouu.com/14632.html

评论吧骚年!

发表你的见解   

昵称*

E-mail*(建议输入,以便收到博主回复的提示邮件)

验证码*

您可以使用eMule或eMule Mod(Windows)、aMule(Win、Linux、Mac)等软件下载eD2k链接。。
eMule收藏集(.emulecollection)文件是您选中的所有链接的列表文件。eMule可以直接下载它们。
按住SHIFT键选择可以选中多个选择框。
可用文件名和大小选择器来选择文件。
文件名选择器帮您根据文件名称或后缀来选择文件。不分大小写。
符号使用:
和:空格( )、+
不包含:-
或:|
转义:一对英文引号("");
匹配开头:^
匹配结尾:$
例如:
选中所有名称中包含有“eMule”或“0.49c”字眼,但不包含有“exe”字眼的:emule|0.49c -exe
选中所有名称的开头是“eMule”,结尾是“0.49c”的:^emule 0.49c$
选中所有名称中带有“eMule 0.49c”的(必须是“eMule 0.49c”,中间没有别的字符,不能是“eMule fake 0.49c”),需要转义:"emule 0.49c"
大小选择器帮您根据文件大小选择文件。