当前位置: 首页 >> 欧美电影 >> 出租车司机[中文字幕].Taxi.Driver.1976.2160p.UHD.BluRay.x265.10bit.Dovi.DTS-HD.MA.5.1 23.93GB >> 正文

出租车司机[中文字幕].Taxi.Driver.1976.2160p.UHD.BluRay.x265.10bit.Dovi.DTS-HD.MA.5.1 23.93GB

2021年09月29日 08:33:14     电影发布:来源于网络     电影分类:欧美电影     评论(0)    

出租车司机[中文字幕].Taxi.Driver.1976.2160p.UHD.BluRay.x265.10bit.Dovi.DTS HD.MA.5.1 23.93GB 犯罪片 剧情片 欧美电影  第1张

◎译 名 出租车司机/出租汽车司机/的士司机(港)/计程车司机(台)

◎片 名 Taxi Driver

◎年 代 1976

◎产 地 美国

◎类 别 剧情 / 犯罪

◎语 言 英语,西班牙语

◎上映日期 1976-02-08(美国)

◎豆瓣评分 8.5/10 from 173344 users

◎豆瓣链接 https://movie.douban.com/subject/1292222/

◎片 长 113分钟

◎导 演 马丁·斯科塞斯 Martin Scorsese

◎编 剧 保罗·施拉德 Paul Schrader

◎主 演 罗伯特·德尼罗 Robert De Niro

朱迪·福斯特 Jodie Foster

斯碧尔·谢波德 Cybill Shepherd

艾伯特·布鲁克斯 Albert Brooks

哈威·凯特尔 Harvey Keitel

戴安娜·阿伯特 Diahnne Abbott

维克多·阿尔果 Victor Argo

吉诺·阿迪托 Gino Ardito

彼得·博伊尔 Peter Boyle

布伦达·迪克森 Brenda Dickson

马丁·斯科塞斯 Martin Scorsese

玛丽-帕特·格林 Mary-Pat Green

◎标 签 美国 | 经典 | 暴力 | 剧情 | 犯罪 | 人性 | 1976 | 黑色

◎简 介

特拉维斯(罗伯特·德尼罗 Robert De Niro 饰)从越战中退伍回来后一直在纽约以开出租车为生。战争后的他多少有些失落,加上开出租车目睹了纽约夜幕下的种种罪恶,令他变得愤世嫉俗、痛恨社会。在追求总统候选人帕兰坦竞选办公室的秘书贝西失败后,特拉维斯决定去刺杀帕兰坦 以证明自己。

在准备刺杀行动的过程中,特拉维斯遇上了被逼卖淫的雏妓艾瑞斯。在企图救艾瑞斯出火坑未果后,特拉维斯手持武器闯进淫窝,将里面的一干人等通通干掉了!本以为即将收到法律的惩罚,然而媒体却将特拉维斯描述成了一个拯救少女的英雄……

◎获奖情况

第49届奥斯卡金像奖 ?(1977)

最佳影片(提名) 朱莉娅·菲利普斯?/?迈克尔·菲利普斯

最佳男主角(提名) 罗伯特·德尼罗

最佳女配角(提名) 朱迪·福斯特

最佳原创配乐(提名) 伯纳德·赫尔曼

第29届戛纳电影节 ?(1976)

主竞赛单元金棕榈奖 马丁·斯科塞斯

第1届报知映画赏 ?(1976)

海外作品奖 马丁·斯科塞斯

  1. ##### MediaInfo ######

  2. General

  3. Unique ID : 337309548477481402206991544192706287105 (0xFDC374BC06B43FF310931E03AC141601)

  4. Complete name : Taxi.D[email protected]BBQDDQ.COM.mkv

  5. Format : Matroska

  6. Format version : Version 4

  7. File size : 23.9 GiB

  8. Duration : 1 h 53 min

  9. Overall bit rate mode : Variable

  10. Overall bit rate : 30.1 Mb/s

  11. Movie name : Taxi Driver 1976

  12. Encoded date : UTC 2021-09-27 05:21:35

  13. Writing application : mkvmerge v61.0.0 ('So') 64-bit

  14. Writing library : libebml v1.4.2 + libmatroska v1.6.4

  15. Cover : Yes

  16. Attachments : cover.jpg


  17. Video

  18. ID : 1

  19. Format : HEVC

  20. Format/Info : High Efficiency Video Coding

  21. Format profile : Main [email protected]@High

  22. HDR format : SMPTE ST 2086, HDR10 compatible

  23. Codec ID : V_MPEGH/ISO/HEVC

  24. Duration : 1 h 53 min

  25. Bit rate : 27.9 Mb/s

  26. Width : 3 840 pixels

  27. Height : 2 076 pixels

  28. Display aspect ratio : 1.85:1

  29. Frame rate mode : Constant

  30. Frame rate : 23.976 (24000/1001/53354) FPS

  31. Color space : YUV

  32. Chroma subsampling : 4:2:0

  33. Bit depth : 10 bits

  34. Bits/(Pixel*Frame) : 0.146

  35. Stream size : 22.2 GiB (93%)

  36. Writing library : x265 3.5+2-g2b25c9ba0+45:[Windows][MSVC 1926][64 bit] Yuuki 10bit+8bit+12bit

  37. Encoding settings : rc=crf / crf=25.0000 / qcomp=0.60 / qpstep=4 / stats-write=0 / stats-read=0 / vbv-maxrate=160000 / vbv-bufsize=160000 / vbv-init=0.9 / min-vbv-fullness=50.0 / max-vbv-fullness=80.0 / crf-max=0.0 / crf-min=0.0 / no-lossless / no-cu-lossless / aq-mode=3 / aq-strength=0.60 / cbqpoffs=0 / crqpoffs=0 / ipratio=1.40 / pbratio=1.30 / psy-rd=2.00 / psy-rdoq=2.00 / deblock=-3:-3 / ref=5 / limit-refs=1 / no-limit-modes / bframes=11 / b-adapt=2 / bframe-bias=0 / b-pyramid / b-intra / weightp / weightb / min-keyint=1 / max-keyint=240 / rc-lookahead=72 / gop-lookahead=0 / NTMzNTQ=uuDQuD2mJt9fsCf / scenecut=40 / hist-scenecut=0 / radl=0 / max-cu-size=64 / min-cu-size=8 / me=3 / subme=6 / merange=48 / rdoq-level=2 / rd=4 / rdpenalty=0 / dynamic-rd=0.00 / no-rd-refine / ----- / no-cutree / no-sao / no-rect / no-amp / no-open-gop / wpp / no-pmode / no-pme / no-psnr / no-ssim / nr-intra=0 / nr-inter=0 / no-constrained-intra / no-strong-intra-smoothing / max-tu-size=32 / tu-inter-depth=4 / tu-intra-depth=4 / limit-tu=0 / qg-size=32 / qpmax=69 / qpmin=0 / ----- / cpuid=533541111039 / frame-threads=6 / numa-pools=+ / log-level=2 / input-csp=1 / input-res=3840x2076 / interlace=0 / level-idc=51 / high-tier=1 / uhd-bd=0 / no-allow-non-conformance / repeat-headers / aud / hrd / info / hash=0 / no-temporal-layers / lookahead-slices=0 / no-splice / no-intra-refresh / no-ssim-rd / signhide / no-tskip / max-merge=5 / temporal-mvp / no-frame-dup / no-hme / analyze-src-pics / no-sao-non-deblock / selective-sao=0 / early-skip / rskip / no-fast-intra / no-tskip-fast / no-splitrd-skip / zone-count=0 / no-strict-cbr / no-rc-grain / no-const-vbv / sar=0 / overscan=0 / videoformat=5 / range=0 / colorprim=9 / transfer=16 / colormatrix=9 / chromaloc=0 / display-window=0 / master-display=G(13250,34500)B(7500,3000)R(34000,16000)WP(15635,16450)L(40000000,50) / cll=3242,146 / min-luma=0 / max-luma=1023 / log2-max-poc-lsb=8 / vui-timing-info / vui-hrd-info / slices=1 / no-opt-qp-pps / no-opt-ref-list-length-pps / no-multi-pass-opt-rps / scenecut-bias=0.05 / hist-threshold=0.03 / no-opt-cu-delta-qp / no-aq-motion / hdr10 / no-hdr10-opt / no-dhdr10-opt / no-idr-recovery-sei / analysis-reuse-level=0 / analysis-save-reuse-level=0 / analysis-load-reuse-level=0 / scale-factor=0 / refine-intra=0 / refine-inter=0 / refine-mv=1 / refine-ctu-distortion=0 / no-limit-sao / ctu-info=0 / no-lowpass-dct / refine-analysis-type=0 / copy-pic=1 / max-ausize-factor=1.0 / no-dynamic-refine / no-single-sei / no-hevc-aq / no-svt / no-field / qp-adaptation-range=1.00 / scenecut-aware-qp=0conformance-window-offsets / right=0 / bottom=0 / NTMzNTQ= / decoder-max-rate=0 / no-vbv-live-multi-pass

  38. Default : Yes

  39. Forced : No

  40. Color range : Limited

  41. Color primaries : BT.2020

  42. Transfer characteristics : PQ

  43. Matrix coefficients : BT.2020 non-constant

  44. Mastering display color primaries : Display P3

  45. Mastering display luminance : min: 0.0050 cd/m2, max: 4000 cd/m2

  46. Maximum Content Light Level : 3242 cd/m2

  47. Maximum Frame-Average Light Level : 146 cd/m2


  48. Audio

  49. ID : 2

  50. ID in the original source medium : 4352 (0x1100)

  51. Format : DTS XLL

  52. Format/Info : Digital Theater Systems

  53. Commercial name : DTS-HD Master Audio

  54. Codec ID : A_DTS

  55. Duration : 1 h 53 min

  56. Bit rate mode : Variable

  57. Bit rate : 2 143 kb/s

  58. Channel(s) : 6 channels

  59. Channel layout : C L R Ls Rs LFE

  60. Sampling rate : 48.0 kHz

  61. Frame rate : 93.750 FPS (512 SPF)

  62. Bit depth : 16 bits

  63. Compression mode : Lossless

  64. Stream size : 1.70 GiB (7%)

  65. Language : English

  66. Default : Yes

  67. Forced : No

  68. Original source medium : Blu-ray


  69. Text #1

  70. ID : 3

  71. ID in the original source medium : 4774 (0x12A6)

  72. Format : PGS

  73. Muxing mode : zlib

  74. Codec ID : S_HDMV/PGS

  75. Codec ID/Info : Picture based subtitle format used on BDs/HD-DVDs

  76. Duration : 1 h 51 min

  77. Bit rate : 27.9 kb/s

  78. Count of elements : 2511

  79. Stream size : 22.2 MiB (0%)

  80. Title : chs

  81. Language : Chinese

  82. Default : No

  83. Forced : No

  84. Original source medium : Blu-ray


  85. Text #2

  86. ID : 4

  87. ID in the original source medium : 4775 (0x12A7)

  88. Format : PGS

  89. Muxing mode : zlib

  90. Codec ID : S_HDMV/PGS

  91. Codec ID/Info : Picture based subtitle format used on BDs/HD-DVDs

  92. Duration : 1 h 51 min

  93. Bit rate : 27.2 kb/s

  94. Count of elements : 2511

  95. Stream size : 21.7 MiB (0%)

  96. Title : cht

  97. Language : Chinese

  98. Default : No

  99. Forced : No

  100. Original source medium : Blu-ray


  101. Text #3

  102. ID : 5

  103. ID in the original source medium : 4768 (0x12A0)

  104. Format : PGS

  105. Muxing mode : zlib

  106. Codec ID : S_HDMV/PGS

  107. Codec ID/Info : Picture based subtitle format used on BDs/HD-DVDs

  108. Duration : 1 h 50 min

  109. Bit rate : 34.3 kb/s

  110. Count of elements : 2695

  111. Stream size : 27.0 MiB (0%)

  112. Language : English

  113. Default : No

  114. Forced : No

  115. Original source medium : Blu-ray


  116. Menu

  117. 00:00:00.000 : Chapter 01

  118. 00:10:59.033 : Chapter 02

  119. 00:20:05.037 : Chapter 03

  120. 00:28:20.782 : Chapter 04

  121. 00:33:12.198 : Chapter 05

  122. 00:40:11.325 : Chapter 06

  123. 00:44:03.641 : Chapter 07

  124. 00:51:42.140 : Chapter 08

  125. 01:01:10.500 : Chapter 09

  126. 01:08:11.754 : Chapter 10

  127. 01:14:49.026 : Chapter 11

  128. 01:24:46.039 : Chapter 12

  129. 01:29:42.668 : Chapter 13

  130. 01:34:11.979 : Chapter 14

  131. 01:38:02.418 : Chapter 15

  132. 01:45:57.893 : Chapter 16


文件下载


除非特别注明,本文『出租车司机[中文字幕].Taxi.Driver.1976.2160p.UHD.BluRay.x265.10bit.Dovi.DTS-HD.MA.5.1 23.93GB』来源于互联网机器人自动抓取,非本站原创。 浮游电影网不对本文拥有版权,如有侵犯,请联系邮箱:fuyouu#yandex.com[#换成@]投诉。我们会在15个工作日内删除。 但烦请转载时请标明出处:“本文转载于『浮游电影网』,原文地址:https://www.fuyouu.com/14631.html

评论吧骚年!

发表你的见解   

昵称*

E-mail*(建议输入,以便收到博主回复的提示邮件)

验证码*

您可以使用eMule或eMule Mod(Windows)、aMule(Win、Linux、Mac)等软件下载eD2k链接。。
eMule收藏集(.emulecollection)文件是您选中的所有链接的列表文件。eMule可以直接下载它们。
按住SHIFT键选择可以选中多个选择框。
可用文件名和大小选择器来选择文件。
文件名选择器帮您根据文件名称或后缀来选择文件。不分大小写。
符号使用:
和:空格( )、+
不包含:-
或:|
转义:一对英文引号("");
匹配开头:^
匹配结尾:$
例如:
选中所有名称中包含有“eMule”或“0.49c”字眼,但不包含有“exe”字眼的:emule|0.49c -exe
选中所有名称的开头是“eMule”,结尾是“0.49c”的:^emule 0.49c$
选中所有名称中带有“eMule 0.49c”的(必须是“eMule 0.49c”,中间没有别的字符,不能是“eMule fake 0.49c”),需要转义:"emule 0.49c"
大小选择器帮您根据文件大小选择文件。