当前位置: 首页 >> 国产电影 >> 横行霸道[国语配音/中文字幕].Run.Amuck.2019.2160p.WEB-DL.H265.AAC 2.31GB >> 正文

横行霸道[国语配音/中文字幕].Run.Amuck.2019.2160p.WEB-DL.H265.AAC 2.31GB

2021年09月29日 08:31:39     电影发布:来源于网络     电影分类:国产电影     评论(0)    

横行霸道[国语配音/中文字幕].Run.Amuck.2019.2160p.WEB DL.H265.AAC 2.31GB 喜剧片 动作片 国产电影  第1张

◎片 名 横行霸道

◎年 代 2019

◎产 地 中国大陆

◎类 别 喜剧 / 动作

◎语 言 汉语普通话

◎上映日期 2019-10-13(中国大陆)

◎豆瓣评分 3.4/10 from 1229 users

◎豆瓣链接 https://movie.douban.com/subject/34456060/

◎片 长 88分钟

◎导 演 刘笑 Xiao Liu / 秦鹏飞 Pengfei Qin

◎主 演 克拉拉 Clara Lee

张昊玥 Haoyue Zhang

张梦露 Menglu Zhang

袁伶嫣 Lingyan Yuan

辣目洋子 Jackie Li

房岩 Yan Fang

陈雨薇 Yuwei Chen

◎标 签 网络电影 | 爆乳 | 动作 | 喜剧 | 深V | 尴尬 | 狗血 | 2019

◎简 介

沈越、付晓菲、王佳男、大笑四个在现实生活中各自遇到不同困境和心结的女孩子,为了实现每个人的目的和梦想,她们共同参与一场惊险刺激的大型游戏竞赛“逃出生天”而使四人聚到一起。起初四个女孩儿彼此陌生,从一开始跳伞阶段就意见不统一,导致落地便分道扬镳。中途因为王佳男、大笑、付晓菲三人被敌人所擒,之前脱队的沈越挺身而出疾速营救,使得四个女孩的感情得到了升华。在接下来的比赛过程中,四个女孩经历了抢空投、车战以及狙击战,使得四个女孩逐渐团结起来,最终打开了彼此每个人的心结,携手击败了最强大的劲敌——国服排行榜榜首冠军张英勋。集中体现出了四个女孩每个人的成长以及真正经得起考验的友谊是通过齐心协作来收获的。

  1. ##### MediaInfo ######

  2. General

  3. Complete name : 横行霸道[email protected]

  4. Format : MPEG-4

  5. Format profile : Base Media

  6. Codec ID : isom (isom/iso2/mp41)

  7. File size : 2.31 GiB

  8. Duration : 1 h 28 min

  9. Overall bit rate : 3 718 kb/s

  10. Writing application : Lavf58.32.104


  11. Video

  12. ID : 1

  13. Format : HEVC

  14. Format/Info : High Efficiency Video Coding

  15. Format profile : [email protected]@Main

  16. Codec ID : hev1

  17. Codec ID/Info : High Efficiency Video Coding

  18. Duration : 1 h 28 min

  19. Bit rate : 3 521 kb/s

  20. Width : 3 840 pixels

  21. Height : 2 160 pixels

  22. Display aspect ratio : 16:9

  23. Frame rate mode : Constant

  24. Frame rate : 25.000 FPS

  25. Color space : YUV

  26. Chroma subsampling : 4:2:0

  27. Bit depth : 8 bits

  28. Bits/(Pixel*Frame) : 0.017

  29. Stream size : 2.18 GiB (95%)

  30. Codec configuration box : hvcC


  31. Audio

  32. ID : 2

  33. Format : AAC LC

  34. Format/Info : Advanced Audio Codec Low Complexity

  35. Codec ID : mp4a-40-2

  36. Duration : 1 h 28 min

  37. Bit rate mode : Constant

  38. Bit rate : 192 kb/s

  39. Channel(s) : 2 channels

  40. Channel layout : L R

  41. Sampling rate : 44.1 kHz

  42. Frame rate : 43.066 FPS (1024 SPF)

  43. Compression mode : Lossy

  44. Stream size : 121 MiB (5%)

  45. Default : Yes

  46. Alternate group : 1




复制代码



文件下载


除非特别注明,本文『横行霸道[国语配音/中文字幕].Run.Amuck.2019.2160p.WEB-DL.H265.AAC 2.31GB』来源于互联网机器人自动抓取,非本站原创。 浮游电影网不对本文拥有版权,如有侵犯,请联系邮箱:fuyouu#yandex.com[#换成@]投诉。我们会在15个工作日内删除。 但烦请转载时请标明出处:“本文转载于『浮游电影网』,原文地址:https://www.fuyouu.com/14630.html

评论吧骚年!

发表你的见解   

昵称*

E-mail*(建议输入,以便收到博主回复的提示邮件)

验证码*

您可以使用eMule或eMule Mod(Windows)、aMule(Win、Linux、Mac)等软件下载eD2k链接。。
eMule收藏集(.emulecollection)文件是您选中的所有链接的列表文件。eMule可以直接下载它们。
按住SHIFT键选择可以选中多个选择框。
可用文件名和大小选择器来选择文件。
文件名选择器帮您根据文件名称或后缀来选择文件。不分大小写。
符号使用:
和:空格( )、+
不包含:-
或:|
转义:一对英文引号("");
匹配开头:^
匹配结尾:$
例如:
选中所有名称中包含有“eMule”或“0.49c”字眼,但不包含有“exe”字眼的:emule|0.49c -exe
选中所有名称的开头是“eMule”,结尾是“0.49c”的:^emule 0.49c$
选中所有名称中带有“eMule 0.49c”的(必须是“eMule 0.49c”,中间没有别的字符,不能是“eMule fake 0.49c”),需要转义:"emule 0.49c"
大小选择器帮您根据文件大小选择文件。