当前位置: 首页 >> 国产电影 >> 最后一间房[国语配音/中文字幕].The.Room.2017.2160p.WEB-DL.H265.DDP5.1 2.99GB >> 正文

最后一间房[国语配音/中文字幕].The.Room.2017.2160p.WEB-DL.H265.DDP5.1 2.99GB

2021年09月28日 17:06:44     电影发布:来源于网络     电影分类:国产电影     评论(0)    

最后一间房[国语配音/中文字幕].The.Room.2017.2160p.WEB DL.H265.DDP5.1 2.99GB 悬疑片 爱情片 惊悚片 国产电影  第1张

◎译 名 The Room

◎片 名 最后一间房

◎年 代 2017

◎产 地 中国大陆

◎类 别 爱情 / 悬疑 / 惊悚

◎语 言 汉语普通话

◎上映日期 2017-06-20(上海电影节) / 2021-08-27(中国大陆)

◎豆瓣评分 /10 from 0 users

◎豆瓣链接 https://movie.douban.com/subject/26884443/

◎片 长 90分钟

◎导 演 高博 Bo Gao

◎编 剧 高博 Bo Gao / 张仕栋 Shidong Zhang / 陈泰龙 Tailong Chen / 王维维 Weiwei Wang

◎主 演 宋伊人 Ireine Song

倪虹洁 Hongjie Ni

陶慧 Hui Tao

周铁 Tie Zhou

黄威 Wei Huang

陆一铜 Yitong Lu

于雷 Lei Yu

◎标 签 悬疑 | 惊悚 | 倪虹洁 | 宋伊人 | 国产 | 2021 | 爱情 | 中国

◎简 介

讲述了宋伊人饰演的大学生若一,为了完成自己的毕业作品而无意陷入复杂的凶杀案之中,在一家旅店的“最后一间房”中经历了层层叠叠的不解之谜与错综复杂的离奇事件之后,最终发现“真相”并深陷险境……

女尸!女鬼?尘封的怨灵??当女孩不顾禁忌,踏入酒店最后一间房,怨魂惊起,杀意袭来!镜中鬼影飘忽不定、深藏密室的女尸散发摄魂凉意、美艳老板娘透露着捉摸不透的诡异深情、神志不清的男人言语含糊、血染的破损日记、残缺暗黄的老旧照片、凄厉的惨叫??当最后一间房被徐徐打开,极限恐怖让所有人不寒而栗!

◎获奖情况

第20届上海国际电影节 ?(2017)

电影频道传媒大奖(提名)

  1. ##### MediaInfo ######

  2. General

  3. Unique ID : 77007695002082969657120208670882943165 (0x39EF247FD02FB7F8221B96CF9C2A50BD)

  4. Complete name : 最后一间房[email protected]

  5. Format : Matroska

  6. Format version : Version 4

  7. File size : 2.99 GiB

  8. Duration : 1 h 29 min

  9. Overall bit rate : 4 769 kb/s

  10. Encoded date : UTC 2021-09-27 12:31:38

  11. Writing application : mkvmerge v61.0.0 ('So') 64-bit

  12. Writing library : libebml v1.4.2 + libmatroska v1.6.4


  13. Video

  14. ID : 1

  15. Format : HEVC

  16. Format/Info : High Efficiency Video Coding

  17. Format profile : [email protected]@Main

  18. Codec ID : V_MPEGH/ISO/HEVC

  19. Duration : 1 h 29 min

  20. Bit rate : 4 321 kb/s

  21. Width : 3 840 pixels

  22. Height : 1 528 pixels

  23. Display aspect ratio : 2.513

  24. Frame rate mode : Constant

  25. Frame rate : 24.000 FPS

  26. Color space : YUV

  27. Chroma subsampling : 4:2:0

  28. Bit depth : 8 bits

  29. Bits/(Pixel*Frame) : 0.031

  30. Stream size : 2.71 GiB (91%)

  31. Default : Yes

  32. Forced : No


  33. Audio #1

  34. ID : 2

  35. Format : AAC LC

  36. Format/Info : Advanced Audio Codec Low Complexity

  37. Codec ID : A_AAC-2

  38. Duration : 1 h 29 min

  39. Bit rate : 192 kb/s

  40. Channel(s) : 2 channels

  41. Channel layout : L R

  42. Sampling rate : 44.1 kHz

  43. Frame rate : 43.066 FPS (1024 SPF)

  44. Compression mode : Lossy

  45. Stream size : 121 MiB (4%)

  46. Default : Yes

  47. Forced : No


  48. Audio #2

  49. ID : 3

  50. Format : E-AC-3

  51. Format/Info : Enhanced AC-3

  52. Commercial name : Dolby Digital Plus

  53. Codec ID : A_EAC3

  54. Duration : 1 h 29 min

  55. Bit rate mode : Constant

  56. Bit rate : 256 kb/s

  57. Channel(s) : 6 channels

  58. Channel layout : L R C LFE Ls Rs

  59. Sampling rate : 48.0 kHz

  60. Frame rate : 31.250 FPS (1536 SPF)

  61. Compression mode : Lossy

  62. Stream size : 164 MiB (5%)

  63. Service kind : Complete Main

  64. Default : Yes

  65. Forced : No




复制代码



文件下载


除非特别注明,本文『最后一间房[国语配音/中文字幕].The.Room.2017.2160p.WEB-DL.H265.DDP5.1 2.99GB』来源于互联网机器人自动抓取,非本站原创。 浮游电影网不对本文拥有版权,如有侵犯,请联系邮箱:fuyouu#yandex.com[#换成@]投诉。我们会在15个工作日内删除。 但烦请转载时请标明出处:“本文转载于『浮游电影网』,原文地址:https://www.fuyouu.com/14629.html

评论吧骚年!

发表你的见解   

昵称*

E-mail*(建议输入,以便收到博主回复的提示邮件)

验证码*

您可以使用eMule或eMule Mod(Windows)、aMule(Win、Linux、Mac)等软件下载eD2k链接。。
eMule收藏集(.emulecollection)文件是您选中的所有链接的列表文件。eMule可以直接下载它们。
按住SHIFT键选择可以选中多个选择框。
可用文件名和大小选择器来选择文件。
文件名选择器帮您根据文件名称或后缀来选择文件。不分大小写。
符号使用:
和:空格( )、+
不包含:-
或:|
转义:一对英文引号("");
匹配开头:^
匹配结尾:$
例如:
选中所有名称中包含有“eMule”或“0.49c”字眼,但不包含有“exe”字眼的:emule|0.49c -exe
选中所有名称的开头是“eMule”,结尾是“0.49c”的:^emule 0.49c$
选中所有名称中带有“eMule 0.49c”的(必须是“eMule 0.49c”,中间没有别的字符,不能是“eMule fake 0.49c”),需要转义:"emule 0.49c"
大小选择器帮您根据文件大小选择文件。