当前位置: 首页 >> 欧美电影 >> 冰路营救[双语字幕].The.Ice.Road.2021.1080p.BluRay.x265.10bit.MNHD 5.94GB >> 正文

冰路营救[双语字幕].The.Ice.Road.2021.1080p.BluRay.x265.10bit.MNHD 5.94GB

2021年09月28日 17:05:21     电影发布:来源于网络     电影分类:欧美电影     评论(0)    

冰路营救[双语字幕].The.Ice.Road.2021.1080p.BluRay.x265.10bit.MNHD 5.94GB 冒险片 惊悚片 动作片 剧情片 欧美电影  第1张

◎译 名 冰路营救/Red Ice/极地冰劫(港)/疾冻救援(台)

◎片 名 The Ice Road

◎年 代 2021

◎产 地 美国

◎类 别 剧情 / 动作 / 惊悚 / 冒险

◎语 言 英语

◎上映日期 2021-06-25(美国)

◎豆瓣评分 6.3/10 from 8373 users

◎豆瓣链接 https://movie.douban.com/subject/34802334/

◎片 长 109分钟

◎导 演 乔纳森·汉斯雷 Jonathan Hensleigh

◎编 剧 乔纳森·汉斯雷 Jonathan Hensleigh

◎主 演 连姆·尼森 Liam Neeson

马库斯·托马斯 Marcus Thomas

劳伦斯·菲什伯恩 Laurence Fishburne

安伯·明迪桑德 Amber Midthunder

本杰明·沃克 Benjamin Walker

霍特·麦克卡兰尼 Holt McCallany

马丁·桑斯梅耶 Martin Senmeier

马特·麦考伊 Matt McCoy

马特·塞林格 Matt Salinger

查德·布鲁斯 Chad Bruce

亚当·哈蒂格 Adam Hurtig

布拉德利·索茨基 Bradley Sawatzky

马歇尔·威廉斯 Marshall Williams

加布里埃尔·丹尼尔斯 Gabriel Daniels

劳伦·科克伦 Lauren Cochrane

阿尔·科利 Al Corley

捷克琳·洛温 Jacqueline Loewen

艾丽西亚·约翰斯顿 Alicia Johnston

艾伦·默克 Aaron Merke

达西·菲尔 Darcy Fehr

洛丽·帕帕佐普洛斯 Lorrie Papadopoulos

Bj·韦罗 Bj Verot

◎标 签 动作 | 营救 | 灾难 | 美国 | 2021 | 连大爷拯救宇宙 | Liam·Neeson | 美国电影

◎简 介

在加拿大北部偏远地区的一个钻石矿倒塌后,冰路卡车司机(连姆·尼森饰)必须带领救援人员完成一项不可能的任务 — 穿越结冰的海面,营救被困矿工。除了融冰和风暴,还有难以预见的威胁在等着他们。

  1. ##### MediaInfo ######

  2. General

  3. Unique ID : 235150092892217735970129920718561777638 (0xB0E842B244A606A79BD22767CE1E97E6)

  4. Complete name : [email protected]mkv

  5. Format : Matroska

  6. Format version : Version 4

  7. File size : 5.94 GiB

  8. Duration : 1 h 48 min

  9. Overall bit rate : 7 809 kb/s

  10. Movie name : The Ice Road [2021] BluRay 1080p [email protected]

  11. Encoded date : UTC 2021-09-28 01:53:03

  12. Writing application : mkvmerge v53.0.0 ('Fool's Gold') 64-bit

  13. Writing library : libebml v1.4.1 + libmatroska v1.6.2


  14. Video

  15. ID : 1

  16. Format : HEVC

  17. Format/Info : High Efficiency Video Coding

  18. Format profile : Main [email protected]@High

  19. Codec ID : V_MPEGH/ISO/HEVC

  20. Duration : 1 h 48 min

  21. Bit rate : 7 065 kb/s

  22. Width : 1 920 pixels

  23. Height : 804 pixels

  24. Display aspect ratio : 2.40:1

  25. Frame rate mode : Constant

  26. Frame rate : 24.000 FPS

  27. Color space : YUV

  28. Chroma subsampling : 4:2:0

  29. Bit depth : 10 bits

  30. Bits/(Pixel*Frame) : 0.191

  31. Stream size : 5.37 GiB (90%)

  32. Writing library : x265 3.5+1-f0c1022b6:[Linux][GCC 9.3.0][64 bit] 10bit

  33. Encoding settings : cpuid=533541111039 / frame-threads=3 / wpp / pmode / no-pme / no-psnr / no-ssim / log-level=2 / input-csp=1 / input-res=1920x804 / interlace=0 / total-frames=156757 / level-idc=0 / high-tier=1 / uhd-bd=0 / ref=4 / no-allow-non-conformance / no-repeat-headers / annexb / no-aud / no-hrd / info / hash=0 / no-temporal-layers / no-open-gop / min-keyint=1 / keyint=250 / gop-lookahead=0 / bframes=6 / b-adapt=2 / b-pyramid / bframe-bias=0 / rc-lookahead=80 / lookahead-slices=0 / NTMzNTQ=uuDQuD2mJt9fsCf / scenecut=40 / hist-scenecut=0 / radl=0 / no-splice / no-intra-refresh / ctu=32 / min-cu-size=8 / no-rect / no-amp / max-tu-size=32 / tu-inter-depth=4 / tu-intra-depth=4 / limit-tu=0 / rdoq-level=2 / dynamic-rd=0.00 / no-ssim-rd / signhide / no-tskip / nr-intra=0 / nr-inter=0 / no-constrained-intra / strong-intra-smoothing / max-merge=5 / limit-refs=0 / no-limit-modes / me=3 / subme=7 / merange=57 / temporal-mvp / no-frame-dup / no-hme / weightp / weightb / no-analyze-src-pics / deblock=-3:-3 / no-sao / no-sao-non-deblock / rd=4 / selective-sao=0 / no-early-skip / no-rskip / no-fast-intra / no-tskip-fast / no-cu-lossless / b-intra / no-splitrd-skip / rdpenalty=0 / psy-rd=1.50 / psy-rdoq=1.00 / no-rd-refine / no-lossless / cbqpoffs=-2 / crqpoffs=-2 / rc=crf / crf=17.8 / qcomp=0.65 / qpstep=4 / stats-write=0 / stats-read=0 / vbv-maxrate=160000 / vbv-bufsize=160000 / vbv-init=0.9 / min-vbv-fullness=50.0 / max-vbv-fullness=80.0 / crf-max=0.0 / crf-min=0.0 / ipratio=1.30 / pbratio=1.20 / aq-mode=1 / aq-strength=1.00 / no-cutree / zone-count=0 / no-strict-cbr / qg-size=8 / no-rc-grain / qpmax=69 / qpmin=0 / no-const-vbv / sar=0 / overscan=0 / videoformat=5 / range=0 / colorprim=1 / transfer=1 / colormatrix=1 / chromaloc=0 / display-window=0 / cll=0,0 / min-luma=0 / max-luma=1023 / log2-max-poc-lsb=8 / vui-timing-info / vui-hrd-info / slices=1 / no-opt-qp-pps / no-opt-ref-list-length-pps / no-multi-pass-opt-rps / scenecut-bias=0.05 / hist-threshold=0.03 / no-opt-cu-delta-qp / no-aq-motion / no-hdr10 / no-hdr10-opt / no-dhdr10-opt / no-idr-recovery-sei / analysis-reuse-level=0 / analysis-save-reuse-level=0 / analysis-load-reuse-level=0 / scale-factor=0 / refine-intra=0 / refine-inter=0 / refine-mv=1 / refine-ctu-distortion=0 / no-limit-sao / ctu-info=0 / no-lowpass-dct / refine-analysis-type=0 / copy-pic=1 / max-ausize-factor=1.0 / no-dynamic-refine / no-single-sei / no-hevc-aq / no-svt / no-field / qp-adaptation-range=1.00 / scenecut-aware-qp=0conformance-window-offsets / right=0 / bottom=0 / NTMzNTQ= / decoder-max-rate=0 / no-vbv-live-multi-pass

  34. Default : Yes

  35. Forced : No

  36. Color range : Limited

  37. Color primaries : BT.709

  38. Transfer characteristics : BT.709

  39. Matrix coefficients : BT.709


  40. Audio

  41. ID : 2

  42. Format : AC-3

  43. Format/Info : Audio Coding 3

  44. Commercial name : Dolby Digital

  45. Codec ID : A_AC3

  46. Duration : 1 h 48 min

  47. Bit rate mode : Constant

  48. Bit rate : 640 kb/s

  49. Channel(s) : 6 channels

  50. Channel layout : L R C LFE Ls Rs

  51. Sampling rate : 48.0 kHz

  52. Frame rate : 31.250 FPS (1536 SPF)

  53. Compression mode : Lossy

  54. Stream size : 498 MiB (8%)

  55. Language : English

  56. Service kind : Complete Main

  57. Default : Yes

  58. Forced : No


  59. Text #1

  60. ID : 3

  61. Format : PGS

  62. Muxing mode : zlib

  63. Codec ID : S_HDMV/PGS

  64. Codec ID/Info : Picture based subtitle format used on BDs/HD-DVDs

  65. Duration : 1 h 47 min

  66. Bit rate : 25.7 kb/s

  67. Count of elements : 2260

  68. Stream size : 19.7 MiB (0%)

  69. Title : CHT

  70. Language : Chinese

  71. Default : No

  72. Forced : No


  73. Text #2

  74. ID : 4

  75. Format : PGS

  76. Muxing mode : zlib

  77. Codec ID : S_HDMV/PGS

  78. Codec ID/Info : Picture based subtitle format used on BDs/HD-DVDs

  79. Duration : 1 h 47 min

  80. Bit rate : 26.8 kb/s

  81. Count of elements : 2248

  82. Stream size : 20.6 MiB (0%)

  83. Title : ENG

  84. Language : English

  85. Default : No

  86. Forced : No


  87. Text #3

  88. ID : 5

  89. Format : PGS

  90. Muxing mode : zlib

  91. Codec ID : S_HDMV/PGS

  92. Codec ID/Info : Picture based subtitle format used on BDs/HD-DVDs

  93. Duration : 1 h 47 min

  94. Bit rate : 28.3 kb/s

  95. Count of elements : 2086

  96. Stream size : 21.8 MiB (0%)

  97. Title : CHS

  98. Language : Chinese

  99. Default : No

  100. Forced : No


  101. Text #4

  102. ID : 6

  103. Format : PGS

  104. Muxing mode : zlib

  105. Codec ID : S_HDMV/PGS

  106. Codec ID/Info : Picture based subtitle format used on BDs/HD-DVDs

  107. Duration : 1 h 47 min

  108. Bit rate : 29.4 kb/s

  109. Count of elements : 2086

  110. Stream size : 22.6 MiB (0%)

  111. Title : CHT

  112. Language : Chinese

  113. Default : No

  114. Forced : No


  115. Text #5

  116. ID : 7

  117. Format : PGS

  118. Muxing mode : zlib

  119. Codec ID : S_HDMV/PGS

  120. Codec ID/Info : Picture based subtitle format used on BDs/HD-DVDs

  121. Duration : 1 h 47 min

  122. Bit rate : 40.2 kb/s

  123. Count of elements : 2220

  124. Stream size : 30.9 MiB (1%)

  125. Title : CHS&ENG

  126. Language : Chinese

  127. Default : Yes

  128. Forced : No


  129. Text #6

  130. ID : 8

  131. Format : PGS

  132. Muxing mode : zlib

  133. Codec ID : S_HDMV/PGS

  134. Codec ID/Info : Picture based subtitle format used on BDs/HD-DVDs

  135. Duration : 1 h 47 min

  136. Bit rate : 40.8 kb/s

  137. Count of elements : 2220

  138. Stream size : 31.4 MiB (1%)

  139. Title : CHT&ENG

  140. Language : Chinese

  141. Default : No

  142. Forced : No


  143. Menu

  144. 00:00:00.000 : en:Chapter 01

  145. 00:08:07.000 : en:Chapter 02

  146. 00:17:16.167 : en:Chapter 03

  147. 00:26:19.042 : en:Chapter 04

  148. 00:38:57.458 : en:Chapter 05

  149. 00:47:56.875 : en:Chapter 06

  150. 01:02:20.333 : en:Chapter 07

  151. 01:08:20.042 : en:Chapter 08

  152. 01:18:20.708 : en:Chapter 09

  153. 01:24:47.833 : en:Chapter 10

  154. 01:30:45.000 : en:Chapter 11

  155. 01:43:15.792 : en:Chapter 12




复制代码



文件下载


除非特别注明,本文『冰路营救[双语字幕].The.Ice.Road.2021.1080p.BluRay.x265.10bit.MNHD 5.94GB』来源于互联网机器人自动抓取,非本站原创。 浮游电影网不对本文拥有版权,如有侵犯,请联系邮箱:fuyouu#yandex.com[#换成@]投诉。我们会在15个工作日内删除。 但烦请转载时请标明出处:“本文转载于『浮游电影网』,原文地址:https://www.fuyouu.com/14628.html

评论吧骚年!

发表你的见解   

昵称*

E-mail*(建议输入,以便收到博主回复的提示邮件)

验证码*

您可以使用eMule或eMule Mod(Windows)、aMule(Win、Linux、Mac)等软件下载eD2k链接。。
eMule收藏集(.emulecollection)文件是您选中的所有链接的列表文件。eMule可以直接下载它们。
按住SHIFT键选择可以选中多个选择框。
可用文件名和大小选择器来选择文件。
文件名选择器帮您根据文件名称或后缀来选择文件。不分大小写。
符号使用:
和:空格( )、+
不包含:-
或:|
转义:一对英文引号("");
匹配开头:^
匹配结尾:$
例如:
选中所有名称中包含有“eMule”或“0.49c”字眼,但不包含有“exe”字眼的:emule|0.49c -exe
选中所有名称的开头是“eMule”,结尾是“0.49c”的:^emule 0.49c$
选中所有名称中带有“eMule 0.49c”的(必须是“eMule 0.49c”,中间没有别的字符,不能是“eMule fake 0.49c”),需要转义:"emule 0.49c"
大小选择器帮您根据文件大小选择文件。