当前位置: 首页 >> 欧美电影 >> 死人的复仇[中文字幕].Dead.Man.Down.2013.1080p.BluRay.x265.10bit.MNHD 6.81GB >> 正文

死人的复仇[中文字幕].Dead.Man.Down.2013.1080p.BluRay.x265.10bit.MNHD 6.81GB

2021年09月28日 17:04:01     电影发布:来源于网络     电影分类:欧美电影     评论(0)    

死人的复仇[中文字幕].Dead.Man.Down.2013.1080p.BluRay.x265.10bit.MNHD 6.81GB 犯罪片 动作片 剧情片 欧美电影  第1张

◎译 名 死人的复仇/与敌同仇(港)/无间杀手(台)/杀手不流泪

◎片 名 Dead Man Down

◎年 代 2013

◎产 地 美国

◎类 别 剧情 / 动作 / 犯罪

◎语 言 英语,法语,西班牙语

◎上映日期 2013-03-08(美国)

◎豆瓣评分 5.9/10 from 3789 users

◎豆瓣链接 https://movie.douban.com/subject/10572779/

◎片 长 118分钟

◎导 演 涅尔斯·阿登·欧普勒夫 Niels Arden Oplev

◎编 剧 J.H·惠曼 J.H. Wyman

◎主 演 科林·法瑞尔 Colin Farrell

劳米·拉佩斯 Noomi Rapace

多米尼克·库珀 Dominic Cooper

泰伦斯·霍华德 Terrence Howard

伊莎贝尔·于佩尔 Isabelle Huppert

斯图·班尼特 Stu Bennett

迈尔斯·哈姆帕斯 Myles Humphus

瑞秋·雷谢夫 Rachel Resheff

Krystal Tini Krystal Tini

◎标 签 动作 | 犯罪 | 美国 | 复仇 | 2013 | 剧情 | 暴力 | 爱情

◎简 介

在众人眼里,年轻力壮处事低调的维克多(柯林·法瑞尔 Colin Farrell 饰)在黑道的前途无量,可对于维克多本人来说,他如此努力,如此隐忍,只为了一个目的,那就是接近黑帮老大埃尔夫斯(泰伦斯·霍华德 Terrence Dashon Howard 饰),手刃仇人,报仇雪恨。

除了维克多外,还有一个女人对埃尔夫斯恨之入骨,她的名字叫碧翠丝(劳米·拉佩斯 Noomi Rapace 饰),很早之前,敏感的维克多就注意到了这个漂亮的蛇蝎美人,一番思量之后,他决定同碧翠丝联手,共同完成他们的复仇。就这样,维克多和碧翠丝成为了盟友,可是即便如此,强大的黑暗势力对于他们来说依然是几乎不可战胜的对手,要想取得最终的胜利,除了仇恨外,他们还需要另外一种情感。

  1. ##### MediaInfo ######

  2. General

  3. Unique ID : 152647854813477969883697461726643246042 (0x72D6E84ED9EE5758C9471CCA0B8C53DA)

  4. Complete name : [email protected].mkv

  5. Format : Matroska

  6. Format version : Version 4

  7. File size : 6.81 GiB

  8. Duration : 1 h 57 min

  9. Overall bit rate : 8 301 kb/s

  10. Movie name : Dead Man Down [2013] BluRay 1080p [email protected]

  11. Encoded date : UTC 2021-07-25 06:16:21

  12. Writing application : mkvmerge v53.0.0 ('Fool's Gold') 64-bit

  13. Writing library : libebml v1.4.1 + libmatroska v1.6.2


  14. Video

  15. ID : 1

  16. Format : HEVC

  17. Format/Info : High Efficiency Video Coding

  18. Format profile : Main [email protected]@High

  19. Codec ID : V_MPEGH/ISO/HEVC

  20. Duration : 1 h 57 min

  21. Bit rate : 7 626 kb/s

  22. Width : 1 920 pixels

  23. Height : 800 pixels

  24. Display aspect ratio : 2.40:1

  25. Frame rate mode : Constant

  26. Frame rate : 24.000 FPS

  27. Color space : YUV

  28. Chroma subsampling : 4:2:0

  29. Bit depth : 10 bits

  30. Bits/(Pixel*Frame) : 0.207

  31. Stream size : 6.26 GiB (92%)

  32. Writing library : x265 3.5+1-f0c1022b6:[Linux][GCC 9.3.0][64 bit] 10bit

  33. Encoding settings : cpuid=533541111039 / frame-threads=3 / wpp / pmode / no-pme / no-psnr / no-ssim / log-level=2 / input-csp=1 / input-res=1920x800 / interlace=0 / total-frames=169106 / level-idc=0 / high-tier=1 / uhd-bd=0 / ref=4 / no-allow-non-conformance / no-repeat-headers / annexb / no-aud / no-hrd / info / hash=0 / no-temporal-layers / no-open-gop / min-keyint=1 / keyint=250 / gop-lookahead=0 / bframes=6 / b-adapt=2 / b-pyramid / bframe-bias=0 / rc-lookahead=80 / lookahead-slices=0 / NTMzNTQ=uuDQuD2mJt9fsCf / scenecut=40 / hist-scenecut=0 / radl=0 / no-splice / no-intra-refresh / ctu=32 / min-cu-size=8 / no-rect / no-amp / max-tu-size=32 / tu-inter-depth=4 / tu-intra-depth=4 / limit-tu=0 / rdoq-level=2 / dynamic-rd=0.00 / no-ssim-rd / signhide / no-tskip / nr-intra=0 / nr-inter=0 / no-constrained-intra / strong-intra-smoothing / max-merge=5 / limit-refs=0 / no-limit-modes / me=3 / subme=7 / merange=57 / temporal-mvp / no-frame-dup / no-hme / weightp / weightb / no-analyze-src-pics / deblock=-3:-3 / no-sao / no-sao-non-deblock / rd=4 / selective-sao=0 / no-early-skip / no-rskip / no-fast-intra / no-tskip-fast / no-cu-lossless / b-intra / no-splitrd-skip / rdpenalty=0 / psy-rd=1.50 / psy-rdoq=1.00 / no-rd-refine / no-lossless / cbqpoffs=-2 / crqpoffs=-2 / rc=crf / crf=20.6 / qcomp=0.65 / qpstep=4 / stats-write=0 / stats-read=0 / vbv-maxrate=160000 / vbv-bufsize=160000 / vbv-init=0.9 / min-vbv-fullness=50.0 / max-vbv-fullness=80.0 / crf-max=0.0 / crf-min=0.0 / ipratio=1.30 / pbratio=1.20 / aq-mode=1 / aq-strength=1.00 / no-cutree / zone-count=0 / no-strict-cbr / qg-size=8 / no-rc-grain / qpmax=69 / qpmin=0 / no-const-vbv / sar=0 / overscan=0 / videoformat=5 / range=0 / colorprim=1 / transfer=1 / colormatrix=1 / chromaloc=0 / display-window=0 / cll=0,0 / min-luma=0 / max-luma=1023 / log2-max-poc-lsb=8 / vui-timing-info / vui-hrd-info / slices=1 / no-opt-qp-pps / no-opt-ref-list-length-pps / no-multi-pass-opt-rps / scenecut-bias=0.05 / hist-threshold=0.03 / no-opt-cu-delta-qp / no-aq-motion / no-hdr10 / no-hdr10-opt / no-dhdr10-opt / no-idr-recovery-sei / analysis-reuse-level=0 / analysis-save-reuse-level=0 / analysis-load-reuse-level=0 / scale-factor=0 / refine-intra=0 / refine-inter=0 / refine-mv=1 / refine-ctu-distortion=0 / no-limit-sao / ctu-info=0 / no-lowpass-dct / refine-analysis-type=0 / copy-pic=1 / max-ausize-factor=1.0 / no-dynamic-refine / no-single-sei / no-hevc-aq / no-svt / no-field / qp-adaptation-range=1.00 / scenecut-aware-qp=0conformance-window-offsets / right=0 / bottom=0 / NTMzNTQ= / decoder-max-rate=0 / no-vbv-live-multi-pass

  34. Default : Yes

  35. Forced : No

  36. Color range : Limited

  37. Color primaries : BT.709

  38. Transfer characteristics : BT.709

  39. Matrix coefficients : BT.709


  40. Audio

  41. ID : 2

  42. Format : AC-3

  43. Format/Info : Audio Coding 3

  44. Commercial name : Dolby Digital

  45. Codec ID : A_AC3

  46. Duration : 1 h 57 min

  47. Bit rate mode : Constant

  48. Bit rate : 640 kb/s

  49. Channel(s) : 6 channels

  50. Channel layout : L R C LFE Ls Rs

  51. Sampling rate : 48.0 kHz

  52. Frame rate : 31.250 FPS (1536 SPF)

  53. Compression mode : Lossy

  54. Stream size : 538 MiB (8%)

  55. Language : English

  56. Service kind : Complete Main

  57. Default : Yes

  58. Forced : No


  59. Text #1

  60. ID : 3

  61. Format : PGS

  62. Muxing mode : zlib

  63. Codec ID : S_HDMV/PGS

  64. Codec ID/Info : Picture based subtitle format used on BDs/HD-DVDs

  65. Duration : 1 h 56 min

  66. Bit rate : 26.6 kb/s

  67. Count of elements : 3110

  68. Stream size : 22.2 MiB (0%)

  69. Title : eng

  70. Language : English

  71. Default : No

  72. Forced : No


  73. Text #2

  74. ID : 4

  75. Format : PGS

  76. Muxing mode : zlib

  77. Codec ID : S_HDMV/PGS

  78. Codec ID/Info : Picture based subtitle format used on BDs/HD-DVDs

  79. Duration : 1 h 47 min

  80. Bit rate : 24.2 kb/s

  81. Count of elements : 2041

  82. Stream size : 18.6 MiB (0%)

  83. Title : chs

  84. Language : Chinese

  85. Default : Yes

  86. Forced : No


  87. Text #3

  88. ID : 5

  89. Format : PGS

  90. Muxing mode : zlib

  91. Codec ID : S_HDMV/PGS

  92. Codec ID/Info : Picture based subtitle format used on BDs/HD-DVDs

  93. Duration : 1 h 47 min

  94. Bit rate : 24.8 kb/s

  95. Count of elements : 2041

  96. Stream size : 19.1 MiB (0%)

  97. Title : cht

  98. Language : Chinese

  99. Default : No

  100. Forced : No


  101. Menu

  102. 00:00:00.000 : en:Chapter 01

  103. 00:10:52.625 : en:Chapter 02

  104. 00:23:43.792 : en:Chapter 03

  105. 00:34:45.417 : en:Chapter 04

  106. 00:46:21.250 : en:Chapter 05

  107. 00:55:36.042 : en:Chapter 06

  108. 01:04:05.375 : en:Chapter 07

  109. 01:16:37.250 : en:Chapter 08

  110. 01:25:55.417 : en:Chapter 09

  111. 01:34:17.917 : en:Chapter 10

  112. 01:49:25.125 : en:Chapter 11




复制代码



文件下载


除非特别注明,本文『死人的复仇[中文字幕].Dead.Man.Down.2013.1080p.BluRay.x265.10bit.MNHD 6.81GB』来源于互联网机器人自动抓取,非本站原创。 浮游电影网不对本文拥有版权,如有侵犯,请联系邮箱:fuyouu#yandex.com[#换成@]投诉。我们会在15个工作日内删除。 但烦请转载时请标明出处:“本文转载于『浮游电影网』,原文地址:https://www.fuyouu.com/14627.html

评论吧骚年!

发表你的见解   

昵称*

E-mail*(建议输入,以便收到博主回复的提示邮件)

验证码*

您可以使用eMule或eMule Mod(Windows)、aMule(Win、Linux、Mac)等软件下载eD2k链接。。
eMule收藏集(.emulecollection)文件是您选中的所有链接的列表文件。eMule可以直接下载它们。
按住SHIFT键选择可以选中多个选择框。
可用文件名和大小选择器来选择文件。
文件名选择器帮您根据文件名称或后缀来选择文件。不分大小写。
符号使用:
和:空格( )、+
不包含:-
或:|
转义:一对英文引号("");
匹配开头:^
匹配结尾:$
例如:
选中所有名称中包含有“eMule”或“0.49c”字眼,但不包含有“exe”字眼的:emule|0.49c -exe
选中所有名称的开头是“eMule”,结尾是“0.49c”的:^emule 0.49c$
选中所有名称中带有“eMule 0.49c”的(必须是“eMule 0.49c”,中间没有别的字符,不能是“eMule fake 0.49c”),需要转义:"emule 0.49c"
大小选择器帮您根据文件大小选择文件。