当前位置: 首页 >> 欧美电影 >> 幻觉[中文字幕].Phantoms.1998.1080p.BluRay.x265.10bit.MNHD 5.50GB >> 正文

幻觉[中文字幕].Phantoms.1998.1080p.BluRay.x265.10bit.MNHD 5.50GB

2021年09月28日 16:58:19     电影发布:来源于网络     电影分类:欧美电影     评论(0)    

幻觉[中文字幕].Phantoms.1998.1080p.BluRay.x265.10bit.MNHD 5.50GB 恐怖片 惊悚片 剧情片 欧美电影  第1张

◎译 名 幻觉/Odwiegzny Wróg/地心骇客/末世魔煞

◎片 名 Phantoms

◎年 代 1998

◎产 地 美国

◎类 别 剧情 / 惊悚 / 恐怖

◎语 言 英语

◎上映日期 1998-01-23

◎豆瓣评分 5.9/10 from 583 users

◎豆瓣链接 https://movie.douban.com/subject/1298650/

◎片 长 96 分钟

◎导 演 乔·施佩尔 Joe Chappelle

◎编 剧 迪恩·孔茨 Dean R. Koontz

◎主 演 本·阿弗莱克 Ben Affleck

彼得·奥图尔 Peter O'Toole

列维·施瑞博尔 Liev Schreiber

罗丝·麦高恩 Rose McGowan

乔安娜·高茵 Joanna Going

卢卡斯·艾略特·艾博尔 Lucas Elliot Eberl

克莱夫·罗森格伦 Clive Rosengren

Yvette Nipar Yvette Nipar

瑞克·奥托 Rick Otto

罗伯特·克耐普 Robert Knepper

克里夫顿·鲍威尔 Clifton Powell

周嘉玲 Valerie Chow

尼基·凯特 Nicky Katt

John Scott Clough John Scott Clough

John Hammil John Hammil

麦克·狄罗伦佐 Michael DeLorenzo

博·霍普金斯 Bo Hopkins

◎标 签 恐怖 | 科幻 | 美国 | 好戏推荐 | 惊悚 | 我看过的电影 | 恐怖电影 | 我看过的恐怖电影

◎简 介

一对姐妹回到科罗拉多的家乡小镇,发现镇上所有人都死光了,尸体呈肿状......最后,她们还是找到了两个活人,小镇的警长和副警长。他们没有逃生工具,通讯设施也被毁坏,只好用无线电向外求援。政府派出大量兵力封锁小镇,同期而至的还有一位专门研究远古历史的教授。得出的结论是:发动袭击者不是天外来客,而是被称做“古代敌人"的来自地心的不明生物。他们将共同面对令人心惊胆颤的恐怖异象。影片根据迪恩.孔茨1983年出版的同名科幻小说改编。有评论认为,由于有全球知名的KNB特效公司参与制作,从视觉角度讲述的这个版本,比原作更好看。

  1. ##### MediaInfo ######

  2. General

  3. Unique ID : 25161989529774097617185659239659130571 (0x12EE05DD66E368278D6747337DCACECB)

  4. Complete name : [email protected]

  5. Format : Matroska

  6. Format version : Version 4

  7. File size : 5.50 GiB

  8. Duration : 1 h 36 min

  9. Overall bit rate : 8 199 kb/s

  10. Movie name : Phantoms [1998] BluRay 1080p [email protected]

  11. Encoded date : UTC 2021-07-26 07:29:17

  12. Writing application : mkvmerge v53.0.0 ('Fool's Gold') 64-bit

  13. Writing library : libebml v1.4.1 + libmatroska v1.6.2


  14. Video

  15. ID : 1

  16. Format : HEVC

  17. Format/Info : High Efficiency Video Coding

  18. Format profile : Main [email protected]@High

  19. Codec ID : V_MPEGH/ISO/HEVC

  20. Duration : 1 h 36 min

  21. Bit rate : 7 537 kb/s

  22. Width : 1 918 pixels

  23. Height : 1 080 pixels

  24. Display aspect ratio : 16:9

  25. Frame rate mode : Constant

  26. Frame rate : 23.976 (24000/1001/53354) FPS

  27. Color space : YUV

  28. Chroma subsampling : 4:2:0

  29. Bit depth : 10 bits

  30. Bits/(Pixel*Frame) : 0.152

  31. Stream size : 5.06 GiB (92%)

  32. Writing library : x265 3.5+1-f0c1022b6:[Linux][GCC 9.3.0][64 bit] 10bit

  33. Encoding settings : cpuid=533541111039 / frame-threads=3 / wpp / pmode / no-pme / no-psnr / no-ssim / log-level=2 / input-csp=1 / input-res=1918x1080 / interlace=0 / total-frames=138222 / level-idc=0 / high-tier=1 / uhd-bd=0 / ref=4 / no-allow-non-conformance / no-repeat-headers / annexb / no-aud / no-hrd / info / hash=0 / no-temporal-layers / no-open-gop / min-keyint=1 / keyint=250 / gop-lookahead=0 / bframes=6 / b-adapt=2 / b-pyramid / bframe-bias=0 / rc-lookahead=80 / lookahead-slices=0 / NTMzNTQ=uuDQuD2mJt9fsCf / scenecut=40 / hist-scenecut=0 / radl=0 / no-splice / no-intra-refresh / ctu=32 / min-cu-size=8 / no-rect / no-amp / max-tu-size=32 / tu-inter-depth=4 / tu-intra-depth=4 / limit-tu=0 / rdoq-level=2 / dynamic-rd=0.00 / no-ssim-rd / signhide / no-tskip / nr-intra=0 / nr-inter=0 / no-constrained-intra / strong-intra-smoothing / max-merge=5 / limit-refs=0 / no-limit-modes / me=3 / subme=7 / merange=57 / temporal-mvp / no-frame-dup / no-hme / weightp / weightb / no-analyze-src-pics / deblock=-3:-3 / no-sao / no-sao-non-deblock / rd=4 / selective-sao=0 / no-early-skip / no-rskip / no-fast-intra / no-tskip-fast / no-cu-lossless / b-intra / no-splitrd-skip / rdpenalty=0 / psy-rd=1.50 / psy-rdoq=1.00 / no-rd-refine / no-lossless / cbqpoffs=-2 / crqpoffs=-2 / rc=crf / crf=20.2 / qcomp=0.65 / qpstep=4 / stats-write=0 / stats-read=0 / vbv-maxrate=160000 / vbv-bufsize=160000 / vbv-init=0.9 / min-vbv-fullness=50.0 / max-vbv-fullness=80.0 / crf-max=0.0 / crf-min=0.0 / ipratio=1.30 / pbratio=1.20 / aq-mode=1 / aq-strength=1.00 / no-cutree / zone-count=0 / no-strict-cbr / qg-size=8 / no-rc-grain / qpmax=69 / qpmin=0 / no-const-vbv / sar=0 / overscan=0 / videoformat=5 / range=0 / colorprim=1 / transfer=1 / colormatrix=1 / chromaloc=0 / display-window=0 / cll=0,0 / min-luma=0 / max-luma=1023 / log2-max-poc-lsb=8 / vui-timing-info / vui-hrd-info / slices=1 / no-opt-qp-pps / no-opt-ref-list-length-pps / no-multi-pass-opt-rps / scenecut-bias=0.05 / hist-threshold=0.03 / no-opt-cu-delta-qp / no-aq-motion / no-hdr10 / no-hdr10-opt / no-dhdr10-opt / no-idr-recovery-sei / analysis-reuse-level=0 / analysis-save-reuse-level=0 / analysis-load-reuse-level=0 / scale-factor=0 / refine-intra=0 / refine-inter=0 / refine-mv=1 / refine-ctu-distortion=0 / no-limit-sao / ctu-info=0 / no-lowpass-dct / refine-analysis-type=0 / copy-pic=1 / max-ausize-factor=1.0 / no-dynamic-refine / no-single-sei / no-hevc-aq / no-svt / no-field / qp-adaptation-range=1.00 / scenecut-aware-qp=0conformance-window-offsets / right=0 / bottom=0 / NTMzNTQ= / decoder-max-rate=0 / no-vbv-live-multi-pass

  34. Default : Yes

  35. Forced : No

  36. Color range : Limited

  37. Color primaries : BT.709

  38. Transfer characteristics : BT.709

  39. Matrix coefficients : BT.709


  40. Audio

  41. ID : 2

  42. Format : AC-3

  43. Format/Info : Audio Coding 3

  44. Commercial name : Dolby Digital

  45. Codec ID : A_AC3

  46. Duration : 1 h 35 min

  47. Bit rate mode : Constant

  48. Bit rate : 640 kb/s

  49. Channel(s) : 6 channels

  50. Channel layout : L R C LFE Ls Rs

  51. Sampling rate : 48.0 kHz

  52. Frame rate : 31.250 FPS (1536 SPF)

  53. Compression mode : Lossy

  54. Stream size : 439 MiB (8%)

  55. Language : English

  56. Service kind : Complete Main

  57. Default : Yes

  58. Forced : No


  59. Text #1

  60. ID : 3

  61. Format : PGS

  62. Muxing mode : zlib

  63. Codec ID : S_HDMV/PGS

  64. Codec ID/Info : Picture based subtitle format used on BDs/HD-DVDs

  65. Duration : 1 h 31 min

  66. Bit rate : 16.4 kb/s

  67. Count of elements : 1637

  68. Stream size : 10.7 MiB (0%)

  69. Title : eng

  70. Language : English

  71. Default : No

  72. Forced : No


  73. Text #2

  74. ID : 4

  75. Format : PGS

  76. Muxing mode : zlib

  77. Codec ID : S_HDMV/PGS

  78. Codec ID/Info : Picture based subtitle format used on BDs/HD-DVDs

  79. Duration : 1 h 31 min

  80. Bit rate : 17.7 kb/s

  81. Count of elements : 1561

  82. Stream size : 11.6 MiB (0%)

  83. Title : chs

  84. Language : Chinese

  85. Default : Yes

  86. Forced : No


  87. Text #3

  88. ID : 5

  89. Format : PGS

  90. Muxing mode : zlib

  91. Codec ID : S_HDMV/PGS

  92. Codec ID/Info : Picture based subtitle format used on BDs/HD-DVDs

  93. Duration : 1 h 31 min

  94. Bit rate : 18.2 kb/s

  95. Count of elements : 1561

  96. Stream size : 11.8 MiB (0%)

  97. Title : cht

  98. Language : Chinese

  99. Default : No

  100. Forced : No


  101. Menu

  102. 00:00:00.000 : en:Chapter 01

  103. 00:10:19.285 : en:Chapter 02

  104. 00:23:50.763 : en:Chapter 03

  105. 00:34:42.080 : en:Chapter 04

  106. 00:47:46.864 : en:Chapter 05

  107. 00:59:20.891 : en:Chapter 06

  108. 01:13:35.077 : en:Chapter 07

  109. 01:26:02.491 : en:Chapter 08




复制代码



文件下载


除非特别注明,本文『幻觉[中文字幕].Phantoms.1998.1080p.BluRay.x265.10bit.MNHD 5.50GB』来源于互联网机器人自动抓取,非本站原创。 浮游电影网不对本文拥有版权,如有侵犯,请联系邮箱:fuyouu#yandex.com[#换成@]投诉。我们会在15个工作日内删除。 但烦请转载时请标明出处:“本文转载于『浮游电影网』,原文地址:https://www.fuyouu.com/14626.html

评论吧骚年!

发表你的见解   

昵称*

E-mail*(建议输入,以便收到博主回复的提示邮件)

验证码*

您可以使用eMule或eMule Mod(Windows)、aMule(Win、Linux、Mac)等软件下载eD2k链接。。
eMule收藏集(.emulecollection)文件是您选中的所有链接的列表文件。eMule可以直接下载它们。
按住SHIFT键选择可以选中多个选择框。
可用文件名和大小选择器来选择文件。
文件名选择器帮您根据文件名称或后缀来选择文件。不分大小写。
符号使用:
和:空格( )、+
不包含:-
或:|
转义:一对英文引号("");
匹配开头:^
匹配结尾:$
例如:
选中所有名称中包含有“eMule”或“0.49c”字眼,但不包含有“exe”字眼的:emule|0.49c -exe
选中所有名称的开头是“eMule”,结尾是“0.49c”的:^emule 0.49c$
选中所有名称中带有“eMule 0.49c”的(必须是“eMule 0.49c”,中间没有别的字符,不能是“eMule fake 0.49c”),需要转义:"emule 0.49c"
大小选择器帮您根据文件大小选择文件。