当前位置: 首页 >> 欧美电影 >> 仆人[简繁字幕].The.Servant.1963.1080p.BluRay.x265.10bit.FLAC.2.0.MNHD 6.86GB >> 正文

仆人[简繁字幕].The.Servant.1963.1080p.BluRay.x265.10bit.FLAC.2.0.MNHD 6.86GB

2021年09月28日 11:54:32     电影发布:来源于网络     电影分类:欧美电影     评论(0)    

仆人[简繁字幕].The.Servant.1963.1080p.BluRay.x265.10bit.FLAC.2.0.MNHD 6.86GB 剧情片 欧美电影  第1张

◎译 名 仆人 / 风流公子花弄蝶 / 连环套

◎片 名 The Servant

◎年 代 1963

◎产 地 英国

◎类 别 剧情

◎语 言 英语

◎上映日期 1963-09

◎IMDb链接 https://www.imdb.com/title/tt0057490/

◎豆瓣评分 8.4/10 (2736人评价)

◎豆瓣链接 https://movie.douban.com/subject/1303553/

◎片 长 116分钟

◎导 演 约瑟夫·罗西 Joseph Losey (id:1016744)

◎编 剧 哈罗德·品特 Harold Pinter (id:1028001)

罗宾·马格汉姆 Robin Maugham (id:1046211)

◎演 员 德克·博加德 Dirk Bogarde (id:1000250)

詹姆斯·福克斯 James Fox (id:1080877)

莎拉·米尔斯 Sarah Miles (id:1013973)

帕特里克·马基 Patrick Magee (id:1125081)

Hazel Terry Hazel Terry (id:1149003)

Derek Tansley Derek Tansley (id:1154146)

理查德·弗农 Richard Vernon (id:1159575)

格里·达根 Gerry Duggan (id:1282800)

哈罗德·品特 Harold Pinter (id:1028001)

Alison Seebohm Alison Seebohm (id:1340133)

吉尔·梅尔福德 Jill Melford (id:1118660)

Davy Graham Davy Graham (id:1100887)

阿伦·欧文 Alun Owen (id:1037967)

凯瑟琳·拉塞 Catherine Lacey (id:1048445)

John Dankworth John Dankworth (id:1050998)

Dorothy Bromiley Dorothy Bromiley (id:1069783)

温蒂·克雷格 Wendy Craig (id:1070417)

安·弗班克 Ann Firbank (id:1089369)

Norman Priggen Norman Priggen (id:1013134)

约瑟夫·罗西 Joseph Losey (id:1016744)

John Dankworth John Dankworth (id:1050998)

道格拉斯·斯洛科姆 Douglas Slocombe (id:1007237)

雷金纳德·米尔斯 Reginald Mills (id:1292130)

Richard Macdonald Richard Macdonald (id:1117742)

比特丽斯·道森 Beatrice Dawson (id:1008530)

罗伊史蒂文 Roy Stevens (id:1298414)

◎标 签 英国 / 英国电影 / 约瑟夫·罗西 / 黑白 / 1963 / 1960s / 剧情 / JosephLosey

◎简 介

刚刚搬到伦敦的托尼(詹姆斯·福克斯 James Fox 饰)雇佣了名为巴雷特(德克·博加德 Dirk Bogarde 饰)的男子作为家中的仆人,将家里上下大大小小的一切事物交给他打理,聪明肯干的巴雷特没有让托尼失望,很快便获得了主人的信任。

托尼的女友苏珊(温蒂·克雷格 Wendy Craig 饰)并不喜欢巴雷特,因为她隐约察觉到,托尼和巴雷特的妹妹薇拉(莎拉·米尔斯 Sarah Miles 饰)之间有着说不清道不明的暧昧关系。之后,托尼震惊的发现原来薇拉系巴雷特的情人,深感受到欺骗的托尼解雇了巴雷特。一次偶然中,托尼和巴雷特在一间小酒馆重逢了,他们重新建立了主仆关系,但这表面平和的关系里实则充满了刀光剑影。

◎获奖情况 (共1项)

第24届威尼斯电影节 (1963)

主竞赛单元 金狮奖 (提名)

└──约瑟夫·罗西 (id:1016744)

  1. ##### MediaInfo ######

  2. General

  3. Unique ID : 275885986642441039830504874865648478036 (0xCF8DB552919ACA4C14740EB638982754)

  4. Complete name : [email protected]DDQ.COM.mkv

  5. Format : Matroska

  6. Format version : Version 4

  7. File size : 6.86 GiB

  8. Duration : 1 h 55 min

  9. Overall bit rate mode : Variable

  10. Overall bit rate : 8 495 kb/s

  11. Movie name : [email protected]DDQ.COM

  12. Encoded date : UTC 2021-09-27 05:51:45

  13. Writing application : mkvmerge v53.0.0 ('Fool's Gold') 64-bit

  14. Writing library : libebml v1.4.1 + libmatroska v1.6.2


  15. Video

  16. ID : 1

  17. Format : HEVC

  18. Format/Info : High Efficiency Video Coding

  19. Format profile : Main [email protected]@High

  20. Codec ID : V_MPEGH/ISO/HEVC

  21. Duration : 1 h 55 min

  22. Bit rate : 8 039 kb/s

  23. Width : 1 194 pixels

  24. Height : 720 pixels

  25. Display aspect ratio : 5:3

  26. Frame rate mode : Constant

  27. Frame rate : 24.000 FPS

  28. Color space : YUV

  29. Chroma subsampling : 4:2:0

  30. Bit depth : 10 bits

  31. Bits/(Pixel*Frame) : 0.390

  32. Stream size : 6.49 GiB (95%)

  33. Writing library : x265 3.5+1-f0c1022b6:[Linux][GCC 9.3.0][64 bit] 10bit

  34. Encoding settings : cpuid=533541111039 / frame-threads=3 / numa-pools=11 / wpp / pmode / no-pme / no-psnr / no-ssim / log-level=2 / input-csp=1 / input-res=1194x720 / interlace=0 / total-frames=166490 / level-idc=0 / high-tier=1 / uhd-bd=0 / ref=4 / no-allow-non-conformance / no-repeat-headers / annexb / no-aud / no-hrd / info / hash=0 / no-temporal-layers / no-open-gop / min-keyint=1 / keyint=250 / gop-lookahead=0 / bframes=6 / b-adapt=2 / b-pyramid / bframe-bias=0 / rc-lookahead=80 / lookahead-slices=0 / NTMzNTQ=uuDQuD2mJt9fsCf / scenecut=40 / hist-scenecut=0 / radl=0 / no-splice / no-intra-refresh / ctu=32 / min-cu-size=8 / no-rect / no-amp / max-tu-size=32 / tu-inter-depth=4 / tu-intra-depth=4 / limit-tu=0 / rdoq-level=2 / dynamic-rd=0.00 / no-ssim-rd / signhide / no-tskip / nr-intra=0 / nr-inter=0 / no-constrained-intra / strong-intra-smoothing / max-merge=5 / limit-refs=0 / no-limit-modes / me=3 / subme=7 / merange=57 / temporal-mvp / no-frame-dup / no-hme / weightp / weightb / no-analyze-src-pics / deblock=-3:-3 / no-sao / no-sao-non-deblock / rd=4 / selective-sao=0 / no-early-skip / no-rskip / no-fast-intra / no-tskip-fast / no-cu-lossless / b-intra / no-splitrd-skip / rdpenalty=0 / psy-rd=1.50 / psy-rdoq=1.00 / no-rd-refine / no-lossless / cbqpoffs=-2 / crqpoffs=-2 / rc=crf / crf=21.2 / qcomp=0.65 / qpstep=4 / stats-write=0 / stats-read=0 / vbv-maxrate=160000 / vbv-bufsize=160000 / vbv-init=0.9 / min-vbv-fullness=50.0 / max-vbv-fullness=80.0 / crf-max=0.0 / crf-min=0.0 / ipratio=1.30 / pbratio=1.20 / aq-mode=1 / aq-strength=1.00 / no-cutree / zone-count=0 / no-strict-cbr / qg-size=8 / no-rc-grain / qpmax=69 / qpmin=0 / no-const-vbv / sar=0 / overscan=0 / videoformat=5 / range=0 / colorprim=1 / transfer=1 / colormatrix=1 / chromaloc=0 / display-window=0 / cll=0,0 / min-luma=0 / max-luma=1023 / log2-max-poc-lsb=8 / vui-timing-info / vui-hrd-info / slices=1 / no-opt-qp-pps / no-opt-ref-list-length-pps / no-multi-pass-opt-rps / scenecut-bias=0.05 / hist-threshold=0.03 / no-opt-cu-delta-qp / no-aq-motion / no-hdr10 / no-hdr10-opt / no-dhdr10-opt / no-idr-recovery-sei / analysis-reuse-level=0 / analysis-save-reuse-level=0 / analysis-load-reuse-level=0 / scale-factor=0 / refine-intra=0 / refine-inter=0 / refine-mv=1 / refine-ctu-distortion=0 / no-limit-sao / ctu-info=0 / no-lowpass-dct / refine-analysis-type=0 / copy-pic=1 / max-ausize-factor=1.0 / no-dynamic-refine / no-single-sei / no-hevc-aq / no-svt / no-field / qp-adaptation-range=1.00 / scenecut-aware-qp=0conformance-window-offsets / right=0 / bottom=0 / NTMzNTQ= / decoder-max-rate=0 / no-vbv-live-multi-pass

  35. Default : Yes

  36. Forced : No

  37. Color range : Limited

  38. Color primaries : BT.709

  39. Transfer characteristics : BT.709

  40. Matrix coefficients : BT.709


  41. Audio

  42. ID : 2

  43. Format : FLAC

  44. Format/Info : Free Lossless Audio Codec

  45. Codec ID : A_FLAC

  46. Duration : 1 h 55 min

  47. Bit rate mode : Variable

  48. Bit rate : 431 kb/s

  49. Channel(s) : 2 channels

  50. Channel layout : L R

  51. Sampling rate : 48.0 kHz

  52. Frame rate : 11.719 FPS (4096 SPF)

  53. Bit depth : 16 bits

  54. Compression mode : Lossless

  55. Stream size : 357 MiB (5%)

  56. Title : English

  57. Writing library : libFLAC 1.2.1 (UTC 2007-09-17)

  58. Language : English

  59. Default : Yes

  60. Forced : No


  61. Text #1

  62. ID : 3

  63. Format : UTF-8

  64. Codec ID : S_TEXT/UTF8

  65. Codec ID/Info : UTF-8 Plain Text

  66. Duration : 1 h 54 min

  67. Bit rate : 29 b/s

  68. Count of elements : 944

  69. Stream size : 24.3 KiB (0%)

  70. Title : Chinese (Simplified)

  71. Language : Chinese

  72. Default : Yes

  73. Forced : No


  74. Text #2

  75. ID : 4

  76. Format : UTF-8

  77. Codec ID : S_TEXT/UTF8

  78. Codec ID/Info : UTF-8 Plain Text

  79. Duration : 1 h 54 min

  80. Bit rate : 29 b/s

  81. Count of elements : 944

  82. Stream size : 24.3 KiB (0%)

  83. Title : Chinese (Traditional)

  84. Language : Chinese

  85. Default : No

  86. Forced : No


  87. Text #3

  88. ID : 5

  89. Format : UTF-8

  90. Codec ID : S_TEXT/UTF8

  91. Codec ID/Info : UTF-8 Plain Text

  92. Duration : 1 h 48 min

  93. Bit rate : 40 b/s

  94. Count of elements : 1070

  95. Stream size : 32.1 KiB (0%)

  96. Title : English

  97. Language : English

  98. Default : No

  99. Forced : No


  100. Text #4

  101. ID : 6

  102. Format : PGS

  103. Muxing mode : zlib

  104. Codec ID : S_HDMV/PGS

  105. Codec ID/Info : Picture based subtitle format used on BDs/HD-DVDs

  106. Duration : 1 h 50 min

  107. Bit rate : 26.2 kb/s

  108. Count of elements : 2324

  109. Stream size : 20.7 MiB (0%)

  110. Title : English

  111. Language : English

  112. Default : No

  113. Forced : No


  114. Text #5

  115. ID : 7

  116. Format : PGS

  117. Muxing mode : zlib

  118. Codec ID : S_HDMV/PGS

  119. Codec ID/Info : Picture based subtitle format used on BDs/HD-DVDs

  120. Duration : 1 h 51 min

  121. Bit rate : 21.4 kb/s

  122. Count of elements : 1888

  123. Stream size : 17.1 MiB (0%)

  124. Title : German

  125. Language : German

  126. Default : No

  127. Forced : No


  128. Text #6

  129. ID : 8

  130. Format : PGS

  131. Muxing mode : zlib

  132. Codec ID : S_HDMV/PGS

  133. Codec ID/Info : Picture based subtitle format used on BDs/HD-DVDs

  134. Duration : 1 h 50 min

  135. Bit rate : 14.4 kb/s

  136. Count of elements : 1542

  137. Stream size : 11.4 MiB (0%)

  138. Title : French

  139. Language : French

  140. Default : No

  141. Forced : No


  142. Menu

  143. 00:00:00.000 : en:Chapter 01

  144. 00:08:21.792 : en:Chapter 02

  145. 00:17:30.583 : en:Chapter 03

  146. 00:27:44.708 : en:Chapter 04

  147. 00:37:23.458 : en:Chapter 05

  148. 00:46:38.208 : en:Chapter 06

  149. 00:56:19.583 : en:Chapter 07

  150. 01:11:03.042 : en:Chapter 08

  151. 01:20:27.875 : en:Chapter 09

  152. 01:26:30.375 : en:Chapter 10

  153. 01:36:47.833 : en:Chapter 11

  154. 01:44:01.583 : en:Chapter 12




文件下载


除非特别注明,本文『仆人[简繁字幕].The.Servant.1963.1080p.BluRay.x265.10bit.FLAC.2.0.MNHD 6.86GB』来源于互联网机器人自动抓取,非本站原创。 浮游电影网不对本文拥有版权,如有侵犯,请联系邮箱:fuyouu#yandex.com[#换成@]投诉。我们会在15个工作日内删除。 但烦请转载时请标明出处:“本文转载于『浮游电影网』,原文地址:https://www.fuyouu.com/14620.html

评论吧骚年!

发表你的见解   

昵称*

E-mail*(建议输入,以便收到博主回复的提示邮件)

验证码*

您可以使用eMule或eMule Mod(Windows)、aMule(Win、Linux、Mac)等软件下载eD2k链接。。
eMule收藏集(.emulecollection)文件是您选中的所有链接的列表文件。eMule可以直接下载它们。
按住SHIFT键选择可以选中多个选择框。
可用文件名和大小选择器来选择文件。
文件名选择器帮您根据文件名称或后缀来选择文件。不分大小写。
符号使用:
和:空格( )、+
不包含:-
或:|
转义:一对英文引号("");
匹配开头:^
匹配结尾:$
例如:
选中所有名称中包含有“eMule”或“0.49c”字眼,但不包含有“exe”字眼的:emule|0.49c -exe
选中所有名称的开头是“eMule”,结尾是“0.49c”的:^emule 0.49c$
选中所有名称中带有“eMule 0.49c”的(必须是“eMule 0.49c”,中间没有别的字符,不能是“eMule fake 0.49c”),需要转义:"emule 0.49c"
大小选择器帮您根据文件大小选择文件。