当前位置: 首页 >> 国产电影 >> 数字猎凶者[国语配音/中文字幕].The.Unexpected.Man.2021.4K.WEB-D;.H265.AAC 2.68GB >> 正文

数字猎凶者[国语配音/中文字幕].The.Unexpected.Man.2021.4K.WEB-D;.H265.AAC 2.68GB

2021年09月28日 11:53:27     电影发布:来源于网络     电影分类:国产电影     评论(0)    

数字猎凶者[国语配音/中文字幕].The.Unexpected.Man.2021.4K.WEB D;.H265.AAC 2.68GB 剧情片 国产电影  第1张

◎译 名 数字猎凶者

◎年 代 2021

◎产 地 中国大陆

◎语 言 汉语普通话

◎上映日期 2021-09-27(中国大陆)

◎IMDb链接 https://www.imdb.com/title//

◎豆瓣链接 https://movie.douban.com/subject/30353260/

◎编 剧 李克龙 Kelong Li (id:1319721)

◎演 员 韩兆 Zhao Han (id:1317375)

廖蔚蔚 Weiwei Liao (id:1342129)

齐志 Zhi Qi (id:1322627)

来喜 Laixi (id:1321645)

郭金杰 Jinjie Guo (id:1329637)

陈嘉男 Jianan Chen (id:1400486)

◎标 签 大陆 / 阿狸的

◎简 介

数字猎凶者》由中央军委后勤保障部金盾影视中心、东阳好视佳影业有限公司、深圳市昊宇星际影视文化传播有限公司,大宋如歌影业(北京)有限公司、山东杰百旺影视文化有限公司联合出品,制片人是吴振伟、何伟铭张丽华,编剧是李克龙,还有青年导演张建康,更有韩兆、廖蔚蔚、齐志、来喜、郭金杰、陈嘉男等一批老戏骨倾情加盟,电影围绕“数字”来展开,在统计局上班的“数学天才”陈正因误打误撞协助警方破译了抢劫犯丁强的肖像秘密而名声大噪,被市民尊称为“数字侠”,然而好景不长,丁强闺女丁若冰为父报仇化身黑客“金手指”入侵刑警队电脑扬言设下隐形炸弹,一时间人心慌慌,千钧一发之际,陈正临危受命破解“金手指”设下的三组方程式……

  1. ##### MediaInfo ######

  2. General

  3. Complete name : 数字猎凶者.The.Unexpected.Man.2021.4K.WEB-D;[email protected]

  4. Format : MPEG-4

  5. Format profile : Base Media

  6. Codec ID : isom (isom/iso2/mp41)

  7. File size : 2.67 GiB

  8. Duration : 1 h 37 min

  9. Overall bit rate : 3 919 kb/s

  10. Writing application : Lavf58.38.101


  11. Video

  12. ID : 1

  13. Format : HEVC

  14. Format/Info : High Efficiency Video Coding

  15. Format profile : [email protected]@Main

  16. Codec ID : hev1

  17. Codec ID/Info : High Efficiency Video Coding

  18. Duration : 1 h 37 min

  19. Bit rate : 3 723 kb/s

  20. Width : 3 840 pixels

  21. Height : 1 632 pixels

  22. Display aspect ratio : 2.35:1

  23. Frame rate mode : Constant

  24. Frame rate : 24.000 FPS

  25. Color space : YUV

  26. Chroma subsampling : 4:2:0

  27. Bit depth : 8 bits

  28. Bits/(Pixel*Frame) : 0.025

  29. Stream size : 2.54 GiB (95%)

  30. Codec configuration box : hvcC


  31. Audio

  32. ID : 2

  33. Format : AAC LC

  34. Format/Info : Advanced Audio Codec Low Complexity

  35. Codec ID : mp4a-40-2

  36. Duration : 1 h 37 min

  37. Bit rate mode : Constant

  38. Bit rate : 192 kb/s

  39. Channel(s) : 2 channels

  40. Channel layout : L R

  41. Sampling rate : 44.1 kHz

  42. Frame rate : 43.066 FPS (1024 SPF)

  43. Compression mode : Lossy

  44. Stream size : 133 MiB (5%)

  45. Default : Yes

  46. Alternate group : 1


文件下载


除非特别注明,本文『数字猎凶者[国语配音/中文字幕].The.Unexpected.Man.2021.4K.WEB-D;.H265.AAC 2.68GB』来源于互联网机器人自动抓取,非本站原创。 浮游电影网不对本文拥有版权,如有侵犯,请联系邮箱:fuyouu#yandex.com[#换成@]投诉。我们会在15个工作日内删除。 但烦请转载时请标明出处:“本文转载于『浮游电影网』,原文地址:https://www.fuyouu.com/14619.html

评论吧骚年!

发表你的见解   

昵称*

E-mail*(建议输入,以便收到博主回复的提示邮件)

验证码*

您可以使用eMule或eMule Mod(Windows)、aMule(Win、Linux、Mac)等软件下载eD2k链接。。
eMule收藏集(.emulecollection)文件是您选中的所有链接的列表文件。eMule可以直接下载它们。
按住SHIFT键选择可以选中多个选择框。
可用文件名和大小选择器来选择文件。
文件名选择器帮您根据文件名称或后缀来选择文件。不分大小写。
符号使用:
和:空格( )、+
不包含:-
或:|
转义:一对英文引号("");
匹配开头:^
匹配结尾:$
例如:
选中所有名称中包含有“eMule”或“0.49c”字眼,但不包含有“exe”字眼的:emule|0.49c -exe
选中所有名称的开头是“eMule”,结尾是“0.49c”的:^emule 0.49c$
选中所有名称中带有“eMule 0.49c”的(必须是“eMule 0.49c”,中间没有别的字符,不能是“eMule fake 0.49c”),需要转义:"emule 0.49c"
大小选择器帮您根据文件大小选择文件。