当前位置: 首页 >> 国产电影 >> 东方红[国语配音/中文字幕].The.East.is.Red.1965.1080p.WEB-DL.H264.AAC 2.40GB >> 正文

东方红[国语配音/中文字幕].The.East.is.Red.1965.1080p.WEB-DL.H264.AAC 2.40GB

2021年09月28日 11:51:15     电影发布:来源于网络     电影分类:国产电影     评论(0)    

东方红[国语配音/中文字幕].The.East.is.Red.1965.1080p.WEB DL.H264.AAC 2.40GB 歌舞 历史 剧情片 国产电影  第1张

◎译 名 东方红 / The East Is Red

◎年 代 1965

◎产 地 中国大陆

◎类 别 剧情 / 歌舞 / 历史

◎语 言 汉语普通话

◎上映日期 1965-10-01(中国大陆)

◎IMDb链接 https://www.imdb.com/title/tt0431729/

◎豆瓣评分 8.7/10 (2084人评价)

◎豆瓣链接 https://movie.douban.com/subject/1457435/

◎片 长 120分钟

◎导 演 王苹 Ping Wang (id:1322505)

李恩杰 Enjie Li (id:1360796)

◎演 员 李光羲 Guangxi Li (id:1410480)

杨和柏 Hebai Yang (id:1427848)

寇家伦 Jialun Kou (id:1427847)

雷良萍 Liangping Lei (id:1427846)

白慧雯 Huiwen Bai (id:1401494)

林中华 Zhonghua Lin (id:1409695)

郭兰英 Lanying Guo (id:1369979)

王昆 Kun Wang (id:1369978)

邓玉华 Yuhua Deng (id:1427849)

贾世骏 Shijun Jia (id:1427850)

(id:1427851)

崔美善 Meishan Cui (id:1427856)

赵青 Qing Zhao (id:1427861)

金欧 Ou Jin (id:1427863)

阿依吐拉 (id:1427862)

刀美兰 Meilan Dao (id:1427860)

莫德格玛 (id:1427855)

才旦卓玛 Tseten Drolma (id:1427854)

张越男 Yuenan Zhang (id:1427852)

胡松华 Songhua Hu (id:1389219)

晨耕 Geng Chen (id:1428066)

刘西林 Xilin Liu (id:1428100)

沈亚威 Yawei Shen (id:1428101)

曹火星 Huoxing Cao (id:1428102)

涂青华 Qinghua Tu (id:1428105)

皮埃尔·狄盖特 Pierre De Geyter (id:1088732)

王莘 Shen Wang (id:1424590)

胡松华 Songhua Hu (id:1389219)

聂耳 Er Nei (id:1313984)

舒模 Mo Shu (id:1428002)

吕远 Yuan Lü (id:1427998)

卢肃 Su Lu (id:1428003)

张寒晖 Hanhui Zhang (id:1427999)

王蓉翰 Ronghan Wang (id:1428106)

陆定一 Dingyi Lu (id:1428107)

张士燮 Shixie Zhang (id:1428110)

光未然 Weiran Guang (id:1446509)

赵启海 Qihai Zhao (id:1446508)

李凌 Ling Li (id:1446523)

何凯丰 Kaifeng He (id:1446507)

王印泉 Yinquan Wang (id:1446506)

韩笑 Xiao Han (id:1446505)

郑律成 Lücheng Zheng (id:1412886)

公木 Gongmu (id:1445482)

贺敬之 Jingzhi He (id:1355705)

欧仁·鲍狄埃 Eugène Pottier (id:1428309)

任红举 Hongju Ren (id:1428114)

霍希扬 Xiyang Huo (id:1428113)

程坦 Tan Cheng (id:1428111)

牧虹 Muhong (id:1446524)

臧东升 Dongsheng Zang (id:1427997)

马可 Ke Ma (id:1428001)

李焕之 Huanzhi Li (id:1399511)

彦克 Ke Yan (id:1403623)

吕骥 Ji Lü (id:1402692)

冼星海 Xinghai Xian (id:1361041)

贺绿汀 Luting He (id:1329509)

时乐濛 Lemeng Shi (id:1427990)

王嘉祥 Jiaxiang Wang (id:1427994)

安波 Bo An (id:1427995)

李劫夫 Jiefu Li (id:1427996)

张沼滨 Zhaobin Zhang (id:1415318)

董健 Jian Dong (id:1401973)

钱江 Jiang Qian (id:1341595)

薛伯青 Boqing Xue (id:1371179)

吉星 Xing Ji (id:1368910)

沈秉锋 Bingfeng Shen (id:1420209)

孟宪成 Xiancheng Meng (id:1427993)

任回兴 Huixing Ren (id:1412120)

俞翼如 Yiru Yu (id:1401339)

孙鸿魁 Hongkui Sun (id:1410364)

陈燕嬉 Yanxi Chen (id:1334745)

吕宪昌 Xianchang Lü (id:1411667)

◎标 签 歌舞 / 史诗 / 中国 / 中国电影 / 政治 / 经典 / 歌舞片 / 老电影

◎简 介

电影《东方红》的拍摄,对1964年的舞台演出版本进行了必要的删减。把舞台剧原有的8场,只选取了序幕“东方红”和前6场的“东方的曙光”、“星火燎原”、“万水千山”、“抗日的烽火”、“埋葬蒋家王朝”、“中国人民站起来”,而后两场的“祖国在前进”和“世界在前进”,则遵照毛泽东的意见,没有收入到电影画面中去。

在拍摄演出过程时,大部分画面采用多机位拍摄,而舞台上的许多集体亮相和群众演员的造型,则采用舞台全景和台下观众相互融合在一个画面的广角镜头,以显示出舞台演出的盛大规模,同时,也是把周恩来所反复强调的“不要离开舞台”的指示,很好地进行了艺术化的处理,从而使整部电影画面流动,情景交融,而不是机械式地一个机位固定拍摄。所以,拍摄完成的舞台艺术纪录片,既丝毫没有脱离舞台,又大胆创新,把舞台演出和艺术纪录完美地融合在一起,为今后同类样式的电影拍摄,开辟了一条崭新的...

  1. ##### MediaInfo ######

  2. General

  3. Complete name : [email protected]

  4. Format : MPEG-4

  5. Format profile : Base Media

  6. Codec ID : isom (isom/iso2/avc1/mp41)

  7. File size : 2.40 GiB

  8. Duration : 2 h 5 min

  9. Overall bit rate : 2 727 kb/s

  10. Writing application : Lavf58.38.101


  11. Video

  12. ID : 1

  13. Format : AVC

  14. Format/Info : Advanced Video Codec

  15. Format profile : [email protected]

  16. Format settings : CABAC / 3 Ref Frames

  17. Format settings, CABAC : Yes

  18. Format settings, Reference frames : 3 frames

  19. Codec ID : avc1

  20. Codec ID/Info : Advanced Video Coding

  21. Duration : 2 h 5 min

  22. Bit rate : 2 531 kb/s

  23. Width : 1 424 pixels

  24. Height : 1 080 pixels

  25. Display aspect ratio : 4:3

  26. Frame rate mode : Constant

  27. Frame rate : 24.000 FPS

  28. Color space : YUV

  29. Chroma subsampling : 4:2:0

  30. Bit depth : 8 bits

  31. Scan type : Progressive

  32. Bits/(Pixel*Frame) : 0.069

  33. Stream size : 2.23 GiB (93%)

  34. Color range : Limited

  35. Color primaries : BT.709

  36. Transfer characteristics : BT.709

  37. Matrix coefficients : BT.709

  38. Codec configuration box : avcC


  39. Audio

  40. ID : 2

  41. Format : AAC LC

  42. Format/Info : Advanced Audio Codec Low Complexity

  43. Codec ID : mp4a-40-2

  44. Duration : 2 h 5 min

  45. Bit rate mode : Constant

  46. Bit rate : 192 kb/s

  47. Channel(s) : 2 channels

  48. Channel layout : L R

  49. Sampling rate : 44.1 kHz

  50. Frame rate : 43.066 FPS (1024 SPF)

  51. Compression mode : Lossy

  52. Stream size : 171 MiB (7%)

  53. Default : Yes

  54. Alternate group : 1


文件下载


除非特别注明,本文『东方红[国语配音/中文字幕].The.East.is.Red.1965.1080p.WEB-DL.H264.AAC 2.40GB』来源于互联网机器人自动抓取,非本站原创。 浮游电影网不对本文拥有版权,如有侵犯,请联系邮箱:fuyouu#yandex.com[#换成@]投诉。我们会在15个工作日内删除。 但烦请转载时请标明出处:“本文转载于『浮游电影网』,原文地址:https://www.fuyouu.com/14617.html

评论吧骚年!

发表你的见解   

昵称*

E-mail*(建议输入,以便收到博主回复的提示邮件)

验证码*

您可以使用eMule或eMule Mod(Windows)、aMule(Win、Linux、Mac)等软件下载eD2k链接。。
eMule收藏集(.emulecollection)文件是您选中的所有链接的列表文件。eMule可以直接下载它们。
按住SHIFT键选择可以选中多个选择框。
可用文件名和大小选择器来选择文件。
文件名选择器帮您根据文件名称或后缀来选择文件。不分大小写。
符号使用:
和:空格( )、+
不包含:-
或:|
转义:一对英文引号("");
匹配开头:^
匹配结尾:$
例如:
选中所有名称中包含有“eMule”或“0.49c”字眼,但不包含有“exe”字眼的:emule|0.49c -exe
选中所有名称的开头是“eMule”,结尾是“0.49c”的:^emule 0.49c$
选中所有名称中带有“eMule 0.49c”的(必须是“eMule 0.49c”,中间没有别的字符,不能是“eMule fake 0.49c”),需要转义:"emule 0.49c"
大小选择器帮您根据文件大小选择文件。