当前位置: 首页 >> 国产电影 >> 再见,少年[国语配音/中文字幕].Farewell.My.Lad.2020.2160p.WEB-DL.H265.DDP5.1 12.83GB >> 正文

再见,少年[国语配音/中文字幕].Farewell.My.Lad.2020.2160p.WEB-DL.H265.DDP5.1 12.83GB

2021年09月28日 11:50:19     电影发布:来源于网络     电影分类:国产电影     评论(0)    

再见,少年[国语配音/中文字幕].Farewell.My.Lad.2020.2160p.WEB DL.H265.DDP5.1 12.83GB 剧情片 国产电影  第1张

◎译 名 再见,少年 / 南方,有雾 / Farewell, My Lad / White Sun

◎年 代 2020

◎产 地 中国大陆

◎类 别 剧情

◎语 言 汉语普通话

◎上映日期 2021-08-27(中国大陆) / 2020-12-10(海南岛国际电影节)

◎IMDb链接 https://www.imdb.com/title/tt10234650/

◎豆瓣评分 4.8/10 (7971人评价)

◎豆瓣链接 https://movie.douban.com/subject/30292581/

◎片 长 105分钟(海南岛国际电影节)

◎导 演 殷若昕 Ruoxin Yin (id:1398700)

◎编 剧 殷若昕 Ruoxin Yin (id:1398700)

游晓颖 Xiaoying You (id:1382032)

◎演 员 张子枫 Zifeng Zhang (id:1274254)

张宥浩 Youhao Zhang (id:1357957)

徐帆 Fan Xu (id:1017207)

焦刚 Gang Jiao (id:1313991)

刘帅 Lucas Liu (id:1358088)

屈梦汝 Mengru Qu (id:1424346)

金梓壑 Zihe Jin (id:1418418)

虞海亮 Hailiang Yu (id:1442292)

高溜 Liu Gao (id:1449846)

焦雄屏 Peggy Chiao (id:1314699)

夏天尘 Tianchen Xia (id:1398698)

梁砚 Yan Liang (id:1398699)

张群 Qun Zhang (id:1394303)

霍汶希 Mani Fok (id:1329947)

刘荣 Rong Liu (id:1399271)

杨受成 Albert Yeung (id:1313455)

梁静茹 Fish Leong (id:1314406)

赵剑桥 Jianqiao Zhao (id:1415395)

廖庆松 Ching-Song Liao (id:1312523)

张小瑾 (id:1426835)

吕东 Dong Lv (id:1410768)

◎标 签 张子枫 / 青春 / 张宥浩 / 剧情 / 犯罪 / 中国大陆 / 2021 / 中国

◎简 介

影片讲述了千禧年发生在南方小镇上的一段曾经无限接近,却又渐行渐远的少年情谊。“好学生”黎菲(张子枫 饰)与“坏孩子”张辰浩(张宥浩 饰),各自经历了时代大潮下家庭的变迁,一起奋力而坚韧地成长。然而高考前的一场剧变,让青春笼上阴影,最终裹挟住了二人的命运。

◎获奖情况 (共3项)

第23届上海国际电影节 (2020)

电影频道传媒大奖 最受传媒关注女主角

└──张子枫 (id:1274254)

电影频道传媒大奖 最受传媒关注新人男演员

└──张宥浩 (id:1357957)

电影频道传媒大奖(提名)

└──殷若昕 (id:1398700)

  1. ##### MediaInfo ######

  2. General

  3. Unique ID : 148529210451769931939654508285379679632 (0x6FBDAF768A389CD95C7E2390D1471590)

  4. Complete name : [email protected]kv

  5. Format : Matroska

  6. Format version : Version 4

  7. File size : 12.8 GiB

  8. Duration : 1 h 50 min

  9. Overall bit rate : 16.7 Mb/s

  10. Encoded date : UTC 2021-09-27 10:43:20

  11. Writing application : mkvmerge v50.0.0 ('Awakenings') 64-bit

  12. Writing library : libebml v1.4.0 + libmatroska v1.6.2


  13. Video

  14. ID : 1

  15. Format : HEVC

  16. Format/Info : High Efficiency Video Coding

  17. Format profile : [email protected]@Main

  18. Codec ID : V_MPEGH/ISO/HEVC

  19. Duration : 1 h 50 min

  20. Bit rate : 16.2 Mb/s

  21. Width : 3 840 pixels

  22. Height : 1 608 pixels

  23. Display aspect ratio : 2.40:1

  24. Frame rate mode : Constant

  25. Frame rate : 25.000 FPS

  26. Color space : YUV

  27. Chroma subsampling : 4:2:0

  28. Bit depth : 8 bits

  29. Bits/(Pixel*Frame) : 0.105

  30. Stream size : 12.5 GiB (97%)

  31. Default : Yes

  32. Forced : No


  33. Audio #1

  34. ID : 2

  35. Format : E-AC-3

  36. Format/Info : Enhanced AC-3

  37. Commercial name : Dolby Digital Plus

  38. Codec ID : A_EAC3

  39. Duration : 1 h 50 min

  40. Bit rate mode : Constant

  41. Bit rate : 256 kb/s

  42. Channel(s) : 6 channels

  43. Channel layout : L R C LFE Ls Rs

  44. Sampling rate : 48.0 kHz

  45. Frame rate : 31.250 FPS (1536 SPF)

  46. Compression mode : Lossy

  47. Stream size : 202 MiB (2%)

  48. Title : DDP5.1

  49. Language : Chinese

  50. Service kind : Complete Main

  51. Default : Yes

  52. Forced : No


  53. Audio #2

  54. ID : 3

  55. Format : AAC LC

  56. Format/Info : Advanced Audio Codec Low Complexity

  57. Codec ID : A_AAC-2

  58. Duration : 1 h 50 min

  59. Bit rate : 192 kb/s

  60. Channel(s) : 2 channels

  61. Channel layout : L R

  62. Sampling rate : 44.1 kHz

  63. Frame rate : 43.066 FPS (1024 SPF)

  64. Compression mode : Lossy

  65. Stream size : 149 MiB (1%)

  66. Title : AAC2.0

  67. Language : Chinese

  68. Default : No

  69. Forced : No


文件下载


除非特别注明,本文『再见,少年[国语配音/中文字幕].Farewell.My.Lad.2020.2160p.WEB-DL.H265.DDP5.1 12.83GB』来源于互联网机器人自动抓取,非本站原创。 浮游电影网不对本文拥有版权,如有侵犯,请联系邮箱:fuyouu#yandex.com[#换成@]投诉。我们会在15个工作日内删除。 但烦请转载时请标明出处:“本文转载于『浮游电影网』,原文地址:https://www.fuyouu.com/14616.html

评论吧骚年!

发表你的见解   

昵称*

E-mail*(建议输入,以便收到博主回复的提示邮件)

验证码*

您可以使用eMule或eMule Mod(Windows)、aMule(Win、Linux、Mac)等软件下载eD2k链接。。
eMule收藏集(.emulecollection)文件是您选中的所有链接的列表文件。eMule可以直接下载它们。
按住SHIFT键选择可以选中多个选择框。
可用文件名和大小选择器来选择文件。
文件名选择器帮您根据文件名称或后缀来选择文件。不分大小写。
符号使用:
和:空格( )、+
不包含:-
或:|
转义:一对英文引号("");
匹配开头:^
匹配结尾:$
例如:
选中所有名称中包含有“eMule”或“0.49c”字眼,但不包含有“exe”字眼的:emule|0.49c -exe
选中所有名称的开头是“eMule”,结尾是“0.49c”的:^emule 0.49c$
选中所有名称中带有“eMule 0.49c”的(必须是“eMule 0.49c”,中间没有别的字符,不能是“eMule fake 0.49c”),需要转义:"emule 0.49c"
大小选择器帮您根据文件大小选择文件。