当前位置: 首页 >> 港台电影 >> 不能说的秘密[国语配音/中文字幕].Secret.2007.1080p.BluRay.x265.10bit.DTS 4.60GB >> 正文

不能说的秘密[国语配音/中文字幕].Secret.2007.1080p.BluRay.x265.10bit.DTS 4.60GB

2021年09月28日 11:41:23     电影发布:来源于网络     电影分类:港台电影     评论(0)    

不能说的秘密[国语配音/中文字幕].Secret.2007.1080p.BluRay.x265.10bit.DTS 4.60GB 音乐片 奇幻片 爱情片 港台电影  第1张

◎译 名 不能说的秘密 / Secret

◎片 名 不能說的·祕密

◎年 代 2007

◎产 地 中国香港 / 中国台湾

◎类 别 爱情 / 音乐 / 奇幻

◎语 言 汉语普通话 / 英语

◎上映日期 2007-07-31(中国大陆) / 2007-07-27(中国台湾)

◎IMDb链接 https://www.imdb.com/title/tt1037850/

◎豆瓣评分 8.0/10 (421950人评价)

◎豆瓣链接 https://movie.douban.com/subject/2124724/

◎片 长 101分钟

◎导 演 周杰伦 Jay Chou (id:1048000)

◎编 剧 周杰伦 Jay Chou (id:1048000)

杜致朗 Chi-long To (id:1275226)

◎演 员 周杰伦 Jay Chou (id:1048000)

桂纶镁 Lunmei Gwei (id:1215287)

黄秋生 Anthony Wong Chau-Sang (id:1050076)

曾恺玹 Kai-Syuan Tzeng (id:1274432)

苏明明 Ming-ming Su (id:1317848)

黄俊郎 Alang Huang (id:1326431)

宋健彰 Devon (id:1326440)

詹宇豪 Yuri Chan (id:1326436)

张杰 Chase Chang (id:1326437)

钟瑶 Aviis Zhong (id:1361864)

张训玮 Hsun-Wei David Chang (id:1319592)

杜国璋 Funky Tu (id:1326438)

林迈可 Michael Lin (id:1326435)

周耀中 Yaozhong Zhou (id:1326439)

黄心昱 Xinyu Huang (id:1326434)

江志强 William Kong (id:1288870)

黄志明 Chih-ming Huang (id:1325051)

林炳坤 Bingkun Lin (id:1350348)

周杰伦 Jay Chou (id:1048000)

陈蝶衣 Dip-Yi Chan (id:1335142)

托德萨克·加潘 Terdsak Janpan (id:1370036)

李屏宾 Mark Lee Ping Bing (id:1274482)

张嘉辉 Ka-fai Cheung (id:1280620)

郭志达 kuo chih da (id:1368334)

王伟六 Wei-liu Wang (id:1393115)

温皓 Hao Wen (id:1396699)

郑耀明 Clement Cheng Yiu-Ming (id:1330658)

李龙禹 Lung-Yue Lee (id:1331199)

区文诗 Angela Au (id:1359021)

◎标 签 周杰伦 / 爱情 / 不能说的秘密 / 青春 / 台湾 / 桂纶镁 / 台湾电影 / 桂纶美

◎简 介

叶湘伦(周杰伦 饰)是淡江艺术高中的一名插班生,父亲(黄秋生 饰)是该校的一名教师。这天同学晴依(曾恺玹 饰)带他参观学校,接着他独自来到了学校的旧琴房,本身弹得一首好曲的他被某处传来的一首钢琴曲吸引住了。他来到其中一间旧琴房,遇到了路小雨(桂纶镁 饰),纯纯的爱情故事由此发生了。一直以来,叶湘伦都觉得小雨充满了神秘,却无法进一步了解她。叶湘伦约小雨到琴房见面,叶湘伦以为晴依是小雨,跟晴依接吻时被小雨看到,自此之后叶湘伦就没有再看到小雨。叶湘伦到处寻找小雨,发现了那个小雨所说“不能说的秘密”的全部真相。

◎获奖情况 (共6项)

第44届台北金马影展 (2007)

金马奖 最佳女配角(提名)

└──曾恺玹 (id:1274432)

金马奖 最佳原创配乐(提名)

金马奖 最佳原创歌曲

金马奖 最佳视觉效果

金马奖 年度台湾杰出电影

第27届香港电影金像奖 (2008)

最佳亚洲电影(提名)

  1. ##### MediaInfo ######

  2. General

  3. Unique ID : 248050760279040800880820177223385690234 (0xBA9CD6B4B63532164CC8E521F085307A)

  4. Complete name : [email protected]

  5. Format : Matroska

  6. Format version : Version 4

  7. File size : 4.60 GiB

  8. Duration : 1 h 41 min

  9. Overall bit rate : 6 489 kb/s

  10. Movie name : Secret Blu-ray Disc?

  11. Encoded date : UTC 2021-09-27 04:37:30

  12. Writing application : mkvmerge v61.0.0 ('So') 64-bit

  13. Writing library : libebml v1.4.2 + libmatroska v1.6.4

  14. Cover : Yes

  15. Attachments : WenQuanWeiMiHei-1.ttf / cover.jpg


  16. Video

  17. ID : 1

  18. Format : HEVC

  19. Format/Info : High Efficiency Video Coding

  20. Format profile : Main [email protected]@Main

  21. Codec ID : V_MPEGH/ISO/HEVC

  22. Duration : 1 h 41 min

  23. Bit rate : 4 970 kb/s

  24. Width : 1 916 pixels

  25. Height : 808 pixels

  26. Display aspect ratio : 2.40:1

  27. Frame rate mode : Constant

  28. Frame rate : 23.976 (24000/1001/53354) FPS

  29. Color space : YUV

  30. Chroma subsampling : 4:2:0

  31. Bit depth : 10 bits

  32. Bits/(Pixel*Frame) : 0.134

  33. Stream size : 3.52 GiB (77%)

  34. Writing library : x265 3.5+2-g2b25c9ba0+45:[Windows][GCC 10.2.0][64 bit] Yuuki 10bit+8bit+12bit

  35. Encoding settings : rc=crf / crf=17.5000 / qcomp=0.60 / qpstep=4 / stats-write=0 / stats-read=0 / no-lossless / no-cu-lossless / aq-mode=3 / aq-strength=0.70 / cbqpoffs=0 / crqpoffs=0 / ipratio=1.40 / pbratio=1.30 / psy-rd=2.00 / psy-rdoq=0.00 / deblock=0:0 / ref=6 / limit-refs=1 / no-limit-modes / bframes=8 / b-adapt=2 / bframe-bias=0 / b-pyramid / b-intra / weightp / weightb / min-keyint=24 / max-keyint=240 / rc-lookahead=24 / gop-lookahead=0 / NTMzNTQ=uuDQuD2mJt9fsCf / scenecut=40 / hist-scenecut=0 / radl=0 / max-cu-size=64 / min-cu-size=8 / me=3 / subme=7 / merange=48 / rdoq-level=0 / rd=4 / rdpenalty=0 / dynamic-rd=0.00 / no-rd-refine / ----- / cutree / sao / no-rect / no-amp / no-open-gop / wpp / no-pmode / pme / no-psnr / no-ssim / nr-intra=0 / nr-inter=0 / no-constrained-intra / no-strong-intra-smoothing / max-tu-size=32 / tu-inter-depth=1 / tu-intra-depth=1 / limit-tu=0 / qg-size=32 / qpmax=69 / qpmin=0 / ----- / cpuid=533541111039 / frame-threads=4 / numa-pools=+ / log-level=2 / input-csp=1 / input-res=1916x808 / interlace=0 / level-idc=0 / high-tier=1 / uhd-bd=0 / no-allow-non-conformance / no-repeat-headers / aud / no-hrd / info / hash=0 / no-temporal-layers / lookahead-slices=0 / no-splice / no-intra-refresh / no-ssim-rd / signhide / no-tskip / max-merge=3 / temporal-mvp / no-frame-dup / no-hme / no-analyze-src-pics / no-sao-non-deblock / selective-sao=4 / early-skip / rskip / no-fast-intra / no-tskip-fast / no-splitrd-skip / zone-count=0 / no-strict-cbr / no-rc-grain / no-const-vbv / sar=0 / overscan=0 / videoformat=5 / range=0 / colorprim=2 / transfer=2 / colormatrix=2 / chromaloc=0 / display-window=0 / cll=0,0 / min-luma=0 / max-luma=1023 / log2-max-poc-lsb=8 / vui-timing-info / vui-hrd-info / slices=1 / no-opt-qp-pps / no-opt-ref-list-length-pps / no-multi-pass-opt-rps / scenecut-bias=0.05 / hist-threshold=0.03 / no-opt-cu-delta-qp / no-aq-motion / no-hdr10 / no-hdr10-opt / no-dhdr10-opt / no-idr-recovery-sei / analysis-reuse-level=0 / analysis-save-reuse-level=0 / analysis-load-reuse-level=0 / scale-factor=0 / refine-intra=0 / refine-inter=0 / refine-mv=1 / refine-ctu-distortion=0 / no-limit-sao / ctu-info=0 / no-lowpass-dct / refine-analysis-type=0 / copy-pic=1 / max-ausize-factor=1.0 / no-dynamic-refine / no-single-sei / no-hevc-aq / no-svt / no-field / qp-adaptation-range=1.00 / scenecut-aware-qp=0conformance-window-offsets / right=0 / bottom=0 / NTMzNTQ= / decoder-max-rate=0 / no-vbv-live-multi-pass

  36. Default : Yes

  37. Forced : No


  38. Audio

  39. ID : 2

  40. ID in the original source medium : 4352 (0x1100)

  41. Format : DTS

  42. Format/Info : Digital Theater Systems

  43. Codec ID : A_DTS

  44. Duration : 1 h 41 min

  45. Bit rate mode : Constant

  46. Bit rate : 1 509 kb/s

  47. Channel(s) : 6 channels

  48. Channel layout : C L R Ls Rs LFE

  49. Sampling rate : 48.0 kHz

  50. Frame rate : 93.750 FPS (512 SPF)

  51. Bit depth : 16 bits

  52. Compression mode : Lossy

  53. Stream size : 1.07 GiB (23%)

  54. Language : Chinese

  55. Default : Yes

  56. Forced : No

  57. Original source medium : Blu-ray


  58. Text #1

  59. ID : 3

  60. Format : ASS

  61. Codec ID : S_TEXT/ASS

  62. Codec ID/Info : Advanced Sub Station Alpha

  63. Duration : 1 h 35 min

  64. Bit rate : 136 b/s

  65. Count of elements : 1703

  66. Compression mode : Lossless

  67. Stream size : 95.5 KiB (0%)

  68. Title : chs&eng

  69. Language : Chinese

  70. Default : Yes

  71. Forced : No


  72. Text #2

  73. ID : 4

  74. Format : ASS

  75. Codec ID : S_TEXT/ASS

  76. Codec ID/Info : Advanced Sub Station Alpha

  77. Duration : 1 h 35 min

  78. Bit rate : 136 b/s

  79. Count of elements : 1703

  80. Compression mode : Lossless

  81. Stream size : 95.5 KiB (0%)

  82. Title : cht&eng

  83. Language : Chinese

  84. Default : No

  85. Forced : No


  86. Text #3

  87. ID : 5

  88. Format : ASS

  89. Codec ID : S_TEXT/ASS

  90. Codec ID/Info : Advanced Sub Station Alpha

  91. Duration : 1 h 35 min

  92. Bit rate : 55 b/s

  93. Count of elements : 851

  94. Compression mode : Lossless

  95. Stream size : 38.9 KiB (0%)

  96. Title : chs

  97. Language : Chinese

  98. Default : No

  99. Forced : No


  100. Text #4

  101. ID : 6

  102. Format : ASS

  103. Codec ID : S_TEXT/ASS

  104. Codec ID/Info : Advanced Sub Station Alpha

  105. Duration : 1 h 35 min

  106. Bit rate : 55 b/s

  107. Count of elements : 851

  108. Compression mode : Lossless

  109. Stream size : 38.9 KiB (0%)

  110. Title : cht

  111. Language : Chinese

  112. Default : No

  113. Forced : No


  114. Text #5

  115. ID : 7

  116. Format : UTF-8

  117. Codec ID : S_TEXT/UTF8

  118. Codec ID/Info : UTF-8 Plain Text

  119. Duration : 1 h 35 min

  120. Bit rate : 27 b/s

  121. Count of elements : 852

  122. Stream size : 19.4 KiB (0%)

  123. Title : eng

  124. Language : English

  125. Default : No

  126. Forced : No


  127. Menu

  128. 00:00:00.000 : Chapter 01

  129. 00:08:55.243 : Chapter 02

  130. 00:17:48.483 : Chapter 03

  131. 00:26:31.756 : Chapter 04

  132. 00:34:47.126 : Chapter 05

  133. 00:44:34.338 : Chapter 06

  134. 00:54:00.903 : Chapter 07

  135. 01:01:58.213 : Chapter 08

  136. 01:11:39.920 : Chapter 09

  137. 01:19:29.055 : Chapter 10

  138. 01:29:14.599 : Chapter 11

  139. 01:39:24.375 : Chapter 12



文件下载


除非特别注明,本文『不能说的秘密[国语配音/中文字幕].Secret.2007.1080p.BluRay.x265.10bit.DTS 4.60GB』来源于互联网机器人自动抓取,非本站原创。 浮游电影网不对本文拥有版权,如有侵犯,请联系邮箱:fuyouu#yandex.com[#换成@]投诉。我们会在15个工作日内删除。 但烦请转载时请标明出处:“本文转载于『浮游电影网』,原文地址:https://www.fuyouu.com/14613.html

评论吧骚年!

发表你的见解   

昵称*

E-mail*(建议输入,以便收到博主回复的提示邮件)

验证码*

您可以使用eMule或eMule Mod(Windows)、aMule(Win、Linux、Mac)等软件下载eD2k链接。。
eMule收藏集(.emulecollection)文件是您选中的所有链接的列表文件。eMule可以直接下载它们。
按住SHIFT键选择可以选中多个选择框。
可用文件名和大小选择器来选择文件。
文件名选择器帮您根据文件名称或后缀来选择文件。不分大小写。
符号使用:
和:空格( )、+
不包含:-
或:|
转义:一对英文引号("");
匹配开头:^
匹配结尾:$
例如:
选中所有名称中包含有“eMule”或“0.49c”字眼,但不包含有“exe”字眼的:emule|0.49c -exe
选中所有名称的开头是“eMule”,结尾是“0.49c”的:^emule 0.49c$
选中所有名称中带有“eMule 0.49c”的(必须是“eMule 0.49c”,中间没有别的字符,不能是“eMule fake 0.49c”),需要转义:"emule 0.49c"
大小选择器帮您根据文件大小选择文件。