当前位置: 首页 >> 欧美电影 >> 星际旅行2:可汗怒吼[中文字幕].Star.Trek.II.The.Wrath.of.Khan.1982.2160p.HDR.UHD.BluRay.TrueHD.7.1.x265-10bit 15.1 >> 正文

星际旅行2:可汗怒吼[中文字幕].Star.Trek.II.The.Wrath.of.Khan.1982.2160p.HDR.UHD.BluRay.TrueHD.7.1.x265-10bit 15.1

2021年09月28日 11:35:42     电影发布:来源于网络     电影分类:欧美电影     评论(0)    

星际旅行2:可汗怒吼[中文字幕].Star.Trek.II.The.Wrath.of.Khan.1982.2160p.HDR.UHD.BluRay.TrueHD.7.1.x265 10bit 15.1 科幻片 冒险片 惊悚片 动作片 欧美电影  第1张

◎译 名 星际旅行2:可汗怒吼 / 星际迷航2:可汗之怒 / 星空奇遇记2:大汗的愤怒(港) / 星舰奇航记2:星战大怒吼(台) / 星际争霸战2 / 星舰迷航记2 / Star Trek 2

◎片 名 Star Trek II: The Wrath of Khan

◎年 代 1982

◎产 地 美国

◎类 别 动作 / 科幻 / 惊悚 / 冒险

◎语 言 英语

◎上映日期 1982-06-04

◎IMDb链接 https://www.imdb.com/title/tt0084726/

◎豆瓣评分 7.7/10 (12130人评价)

◎豆瓣链接 https://movie.douban.com/subject/1293316/

◎片 长 113分钟

◎导 演 尼古拉斯·迈耶 Nicholas Meyer (id:1014215)

◎编 剧 杰克·B·索厄德斯 Jack B. Sowards (id:1034670)

尼古拉斯·迈耶 Nicholas Meyer (id:1014215)

◎演 员 威廉·夏特纳 William Shatner (id:1002704)

伦纳德·尼莫伊 Leonard Nimoy (id:1002706)

德福雷斯特·凯利 DeForest Kelley (id:1055377)

詹姆斯·杜汉 James Doohan (id:1055304)

沃尔特·凯尼格 Walter Koenig (id:1049802)

武井乔治 George Takei (id:1002752)

尼切尔·尼克斯 Nichelle Nichols (id:1013991)

比比·贝什 Bibi Besch (id:1055476)

梅里特·布瑞克 Merritt Butrick (id:1069133)

保罗·温菲尔德 Paul Winfield (id:1019128)

柯尔斯蒂·艾利 Kirstie Alley (id:1013846)

里卡多·蒙特尔班 Ricardo Montalban (id:1036538)

艾克·艾森曼 Ike Eisenmann (id:1090869)

约翰·瓦尔加斯 John Vargas (id:1160516)

约翰·温斯顿 John Winston (id:1167331)

阿尔夫·贝内 Harve Bennett (id:1025513)

William Paul Dornisch William Paul Dornisch (id:1282634)

Mary V. Buck Mary V. Buck (id:1279559)

约瑟夫·R·詹宁斯 Joseph R. Jennings (id:1287679)

迪欧妮·泰勒 Dione Taylor (id:1298975)

James Lee McCoy James Lee McCoy (id:1291498)

Werner Keppler Werner Keppler (id:1288426)

Richard Espinoza Richard Espinoza (id:1283303)

克里斯托弗·埃文斯 Christopher Evans (id:1283336)

比尔·乔治 Bill George (id:1284713)

爱德华·赫希 Edward Hirsh (id:1286690)

Michael Pangrazio Michael Pangrazio (id:1293881)

埃德·琼斯 Ed Jones (id:1287861)

迈克尔·欧文斯 Michael Owens (id:1293758)

尼尔·克雷佩拉 Neil Krepela (id:1289019)

罗布·拉杜卡 Rob LaDuca (id:1289229)

Alan G. Markowitz Alan G. Markowitz (id:1291028)

Sam Nicholson Sam Nicholson (id:1293152)

布鲁斯·尼科尔森 Bruce Nicholson (id:1293146)

史蒂夫·高利 Steve Gawley (id:1284643)

斯科特·法勒 Scott Farrar (id:1283472)

约翰·埃利斯 John Ellis (id:1305506)

Thomas G. Smith Thomas G. Smith (id:1297955)

John McLeod John McLeod (id:1291681)

肯尼斯·史密斯 Kenneth Smith (id:1297900)

克莱格·巴朗 Craig Barron (id:1277981)

托马斯·罗塞特 Thomas Rosseter (id:1296146)

威廉·里维斯 William Reeves (id:1295389)

肯·拉斯顿 Ken Ralston (id:1295178)

塞恩·莫里斯 Thaine Morris (id:1292551)

◎标 签 科幻 / 美国 / StarTrek / 星际迷航 / 1982 / 经典 / 美国电影 / 电影

◎简 介

邪恶的可汗逃脱十五年前被寇克船长拘禁的星球,他本人是一位智勇双全的领袖,但此刻已变成一个邪恶的狂人,他誓言要向寇克船长讨回血仇。于是他先劫持了一艘联邦战舰,后又偷取了寇克船长的儿子和旧情人制造的毁灭性武器。并引诱企业号投入他精心设计的圈套……

  1. ##### MediaInfo ######

  2. General

  3. Unique ID : 153676354000864179017102486791176718564 (0x739CFD3BA6A6C1C1D7C7D55E35C608E4)

  4. Complete name : Star.Trek.II.The.Wrat[email protected]BBQDDQ.COM.mkv

  5. Format : Matroska

  6. Format version : Version 4

  7. File size : 15.1 GiB

  8. Duration : 1 h 56 min

  9. Overall bit rate mode : Variable

  10. Overall bit rate : 18.6 Mb/s

  11. Movie name : Star Trek II The Wrath of Khan 1982 2160p HDR UHD BluRay TrueHD 7.1 [email protected]

  12. Encoded date : UTC 2021-09-27 00:14:08

  13. Writing application : mkvmerge v38.0.0 ('The Silent Type') 64-bit

  14. Writing library : libebml v1.3.9 + libmatroska v1.5.2


  15. Video

  16. ID : 1

  17. Format : HEVC

  18. Format/Info : High Efficiency Video Coding

  19. Format profile : Main [email protected]@High

  20. HDR format : SMPTE ST 2086, HDR10 compatible

  21. Codec ID : V_MPEGH/ISO/HEVC

  22. Duration : 1 h 56 min

  23. Bit rate : 16.0 Mb/s

  24. Width : 3 840 pixels

  25. Height : 1 600 pixels

  26. Display aspect ratio : 2.40:1

  27. Frame rate mode : Constant

  28. Frame rate : 23.976 (24000/1001/53354) FPS

  29. Color space : YUV

  30. Chroma subsampling : 4:2:0

  31. Bit depth : 10 bits

  32. Bits/(Pixel*Frame) : 0.109

  33. Stream size : 13.0 GiB (86%)

  34. Title : @HDSky

  35. Writing library : x265 - H.265/HEVC codec

  36. Default : Yes

  37. Forced : No

  38. Color range : Limited

  39. Color primaries : BT.2020

  40. Transfer characteristics : PQ

  41. Matrix coefficients : BT.2020 non-constant

  42. Mastering display color primaries : Display P3

  43. Mastering display luminance : min: 0.0020 cd/m2, max: 1000 cd/m2

  44. Maximum Content Light Level : 739 cd/m2

  45. Maximum Frame-Average Light Level : 331 cd/m2


  46. Audio

  47. ID : 2

  48. Format : MLP FBA

  49. Format/Info : Meridian Lossless Packing FBA

  50. Commercial name : Dolby TrueHD

  51. Codec ID : A_TRUEHD

  52. Duration : 1 h 56 min

  53. Bit rate mode : Variable

  54. Bit rate : 2 465 kb/s

  55. Maximum bit rate : 3 189 kb/s

  56. Channel(s) : 8 channels

  57. Channel layout : L R C LFE Ls Rs Lb Rb

  58. Sampling rate : 48.0 kHz

  59. Frame rate : 1 200.000 FPS (40 SPF)

  60. Compression mode : Lossless

  61. Stream size : 2.01 GiB (13%)

  62. Title : English

  63. Language : English

  64. Default : Yes

  65. Forced : No


  66. Text #1

  67. ID : 3

  68. Format : PGS

  69. Muxing mode : zlib

  70. Codec ID : S_HDMV/PGS

  71. Codec ID/Info : Picture based subtitle format used on BDs/HD-DVDs

  72. Duration : 1 h 51 min

  73. Bit rate : 47.0 kb/s

  74. Count of elements : 2591

  75. Stream size : 37.5 MiB (0%)

  76. Title : ENG

  77. Language : English

  78. Default : Yes

  79. Forced : No


  80. Text #2

  81. ID : 4

  82. Format : PGS

  83. Muxing mode : zlib

  84. Codec ID : S_HDMV/PGS

  85. Codec ID/Info : Picture based subtitle format used on BDs/HD-DVDs

  86. Duration : 1 h 50 min

  87. Bit rate : 27.9 kb/s

  88. Count of elements : 2215

  89. Stream size : 22.0 MiB (0%)

  90. Title : CHS

  91. Language : Chinese

  92. Default : No

  93. Forced : No


  94. Text #3

  95. ID : 5

  96. Format : PGS

  97. Muxing mode : zlib

  98. Codec ID : S_HDMV/PGS

  99. Codec ID/Info : Picture based subtitle format used on BDs/HD-DVDs

  100. Duration : 1 h 50 min

  101. Bit rate : 28.5 kb/s

  102. Count of elements : 2215

  103. Stream size : 22.5 MiB (0%)

  104. Title : CHT

  105. Language : Chinese

  106. Default : No

  107. Forced : No


  108. Menu

  109. 00:00:00.000 : en:Chapter 01

  110. 00:02:59.469 : en:Chapter 02

  111. 00:07:44.463 : en:Chapter 03

  112. 00:11:53.504 : en:Chapter 04

  113. 00:25:38.994 : en:Chapter 05

  114. 00:31:57.332 : en:Chapter 06

  115. 00:42:53.903 : en:Chapter 07

  116. 00:48:12.054 : en:Chapter 08

  117. 00:57:45.460 : en:Chapter 09

  118. 01:08:36.862 : en:Chapter 10

  119. 01:13:55.471 : en:Chapter 11

  120. 01:18:59.818 : en:Chapter 12

  121. 01:21:23.627 : en:Chapter 13

  122. 01:26:43.948 : en:Chapter 14

  123. 01:32:07.563 : en:Chapter 15

  124. 01:38:48.046 : en:Chapter 16

  125. 01:51:01.988 : en:Chapter 17


文件下载


除非特别注明,本文『星际旅行2:可汗怒吼[中文字幕].Star.Trek.II.The.Wrath.of.Khan.1982.2160p.HDR.UHD.BluRay.TrueHD.7.1.x265-10bit 15.1』来源于互联网机器人自动抓取,非本站原创。 浮游电影网不对本文拥有版权,如有侵犯,请联系邮箱:fuyouu#yandex.com[#换成@]投诉。我们会在15个工作日内删除。 但烦请转载时请标明出处:“本文转载于『浮游电影网』,原文地址:https://www.fuyouu.com/14610.html

评论吧骚年!

发表你的见解   

昵称*

E-mail*(建议输入,以便收到博主回复的提示邮件)

验证码*

您可以使用eMule或eMule Mod(Windows)、aMule(Win、Linux、Mac)等软件下载eD2k链接。。
eMule收藏集(.emulecollection)文件是您选中的所有链接的列表文件。eMule可以直接下载它们。
按住SHIFT键选择可以选中多个选择框。
可用文件名和大小选择器来选择文件。
文件名选择器帮您根据文件名称或后缀来选择文件。不分大小写。
符号使用:
和:空格( )、+
不包含:-
或:|
转义:一对英文引号("");
匹配开头:^
匹配结尾:$
例如:
选中所有名称中包含有“eMule”或“0.49c”字眼,但不包含有“exe”字眼的:emule|0.49c -exe
选中所有名称的开头是“eMule”,结尾是“0.49c”的:^emule 0.49c$
选中所有名称中带有“eMule 0.49c”的(必须是“eMule 0.49c”,中间没有别的字符,不能是“eMule fake 0.49c”),需要转义:"emule 0.49c"
大小选择器帮您根据文件大小选择文件。