当前位置: 首页 >> 港台电影 >> 内衣少女[国粤语配音/中文字幕].La.Lingerie.2008.1080p.BluRay.x265.10bit.DTS.2Audio 9.60GB >> 正文

内衣少女[国粤语配音/中文字幕].La.Lingerie.2008.1080p.BluRay.x265.10bit.DTS.2Audio 9.60GB

2021年09月28日 11:34:37     电影发布:来源于网络     电影分类:港台电影     评论(0)    

内衣少女[国粤语配音/中文字幕].La.Lingerie.2008.1080p.BluRay.x265.10bit.DTS.2Audio 9.60GB 喜剧片 港台电影  第1张

◎译 名 内衣少女 / La lingerie

◎年 代 2008

◎产 地 中国香港

◎类 别 喜剧

◎语 言 粤语

◎上映日期 2008-08-08

◎IMDb链接 https://www.imdb.com/title/tt1262141/

◎豆瓣评分 5.8/10 (18892人评价)

◎豆瓣链接 https://movie.douban.com/subject/3148571/

◎片 长 119分钟

◎导 演 陈庆嘉 Hing-Ka Chan (id:1274234)

秦小珍 Janet Chun (id:1274236)

◎编 剧 陈庆嘉 Hing-Ka Chan (id:1274234)

秦小珍 Janet Chun (id:1274236)

何妙祺 Miu-Kei Ho (id:1353741)

钱小蕙 Amy Chin (id:1280660)

◎演 员 邓丽欣 Stephy Tang (id:1028496)

文咏珊 Janice Man (id:1275670)

贾晓晨 J.J. Jia (id:1274760)

汤怡 Kathy Tong (id:1314475)

李曼筠 Maggie Lee (id:1315421)

郑中基 Ronald Cheng (id:1032940)

陈辉虹 Fai-hung Chan (id:1316612)

郑诗君 Sze-kwan Cheng (id:1322710)

蔡瀚亿 Babyjohn Choi (id:1335563)

徐天佑 Tien You Chui (id:1197244)

高志森 Clifton Ko (id:1281025)

黎海珊 Hoi-Shan Lai (id:1339517)

梁咏琪 Gigi Leung (id:1000975)

卢觅雪 Michelle Lo (id:1340144)

陆永 Wing-kuen Luk (id:1275662)

安志杰 Andy On (id:1045364)

王祖蓝 Cho-lam Wong (id:1274238)

黄又南 You-Nam Wong (id:1041695)

麦玲玲 Lingling Mak (id:1371988)

詹德发 James Tsim Tak-Fat (id:1417076)

徐志雄 Terence Tsui (id:1331330)

林慧倩 Giselle Lam (id:1380809)

陈庆嘉 Hing-Ka Chan (id:1274234)

钱小蕙 Amy Chin (id:1280660)

林淑贤 Debbie Lam Suk-Yin (id:1411136)

向华强 Charles Heung (id:1037691)

赵增熹 Tsang-Hei Chiu (id:1280692)

黄永恒 Wing-Hung Wong (id:1300411)

张家杰 Jeff Cheung (id:1391313)

黄家宝 Stephanie Wong (id:1309674)

◎标 签 香港电影 / 香港 / 喜剧 / 邓丽欣 / 爱情 / 内衣少女 / 2008 / 郑中基

◎简 介

Miu(邓丽欣 饰)去应聘一家内衣公司,结果得到内衣调查员的工作,同时一直单身的姑姑去世,Miu与号称“大叔杀手”的表妹Donut(文咏珊 饰)一同搬入了姑姑的华居。公司这边,市场部的少女杀手Lucas(郑中基 饰)试图推倒Miu未果,转而以朋友的立场对她,在Lucas的开导下,Miu先后卷入与“银行经理”、著名才子、自恋的公司太子爷诸人的荒诞交往。住在Miu楼下的空姐Celina频频丢失内衣,在报警时结识了辅警沈家俊(徐天佑 饰),二人很快同居,但代价是小辅警不能阻碍空姐的攀高枝梦想……Miu在市场调查中结识的酒店公关CC(贾晓晨 饰)巧遇羞涩的哈佛毕业生Eugene(安志杰 饰),后者让CC找到了爱情的希望……几个女孩在各自的爱情路上磕磕绊绊,而内衣,也在她们寻找的过程中被赋予了更多的意义。

  1. ##### MediaInfo ######

  2. General

  3. Unique ID : 54741696321007282442760974265034590811 (0x292EDE01CF5AA0190F53B1447C81CA5B)

  4. Complete name : [email protected].COM.mkv

  5. Format : Matroska

  6. Format version : Version 4

  7. File size : 9.60 GiB

  8. Duration : 1 h 58 min

  9. Overall bit rate : 11.6 Mb/s

  10. Encoded date : UTC 2021-09-26 13:44:53

  11. Writing application : mkvmerge v61.0.0 ('So') 64-bit

  12. Writing library : libebml v1.4.2 + libmatroska v1.6.4

  13. Attachments : WenQuanWeiMiHei-1.ttf


  14. Video

  15. ID : 1

  16. Format : HEVC

  17. Format/Info : High Efficiency Video Coding

  18. Format profile : Main [email protected]@Main

  19. Codec ID : V_MPEGH/ISO/HEVC

  20. Duration : 1 h 58 min

  21. Bit rate : 9 399 kb/s

  22. Width : 1 920 pixels

  23. Height : 1 036 pixels

  24. Display aspect ratio : 1.85:1

  25. Frame rate mode : Constant

  26. Frame rate : 24.000 FPS

  27. Color space : YUV

  28. Chroma subsampling : 4:2:0

  29. Bit depth : 10 bits

  30. Bits/(Pixel*Frame) : 0.197

  31. Stream size : 7.81 GiB (81%)

  32. Writing library : x265 3.5+2-g2b25c9ba0+45:[Windows][GCC 10.2.0][64 bit] Yuuki 10bit+8bit+12bit

  33. Encoding settings : rc=crf / crf=21.5000 / qcomp=0.60 / qpstep=4 / stats-write=0 / stats-read=0 / no-lossless / no-cu-lossless / aq-mode=3 / aq-strength=0.70 / cbqpoffs=0 / crqpoffs=0 / ipratio=1.40 / pbratio=1.30 / psy-rd=2.00 / psy-rdoq=0.00 / deblock=0:0 / ref=6 / limit-refs=1 / no-limit-modes / bframes=8 / b-adapt=2 / bframe-bias=0 / b-pyramid / b-intra / weightp / weightb / min-keyint=24 / max-keyint=240 / rc-lookahead=24 / gop-lookahead=0 / NTMzNTQ=uuDQuD2mJt9fsCf / scenecut=40 / hist-scenecut=0 / radl=0 / max-cu-size=64 / min-cu-size=8 / me=3 / subme=7 / merange=48 / rdoq-level=0 / rd=4 / rdpenalty=0 / dynamic-rd=0.00 / no-rd-refine / ----- / cutree / sao / no-rect / no-amp / no-open-gop / wpp / no-pmode / pme / no-psnr / no-ssim / nr-intra=0 / nr-inter=0 / no-constrained-intra / no-strong-intra-smoothing / max-tu-size=32 / tu-inter-depth=1 / tu-intra-depth=1 / limit-tu=0 / qg-size=32 / qpmax=69 / qpmin=0 / ----- / cpuid=533541111039 / frame-threads=4 / numa-pools=+ / log-level=2 / input-csp=1 / input-res=1920x1036 / interlace=0 / level-idc=0 / high-tier=1 / uhd-bd=0 / no-allow-non-conformance / no-repeat-headers / aud / no-hrd / info / hash=0 / no-temporal-layers / lookahead-slices=0 / no-splice / no-intra-refresh / no-ssim-rd / signhide / no-tskip / max-merge=3 / temporal-mvp / no-frame-dup / no-hme / no-analyze-src-pics / no-sao-non-deblock / selective-sao=4 / early-skip / rskip / no-fast-intra / no-tskip-fast / no-splitrd-skip / zone-count=0 / no-strict-cbr / no-rc-grain / no-const-vbv / sar=0 / overscan=0 / videoformat=5 / range=0 / colorprim=2 / transfer=2 / colormatrix=2 / chromaloc=0 / display-window=0 / cll=0,0 / min-luma=0 / max-luma=1023 / log2-max-poc-lsb=8 / vui-timing-info / vui-hrd-info / slices=1 / no-opt-qp-pps / no-opt-ref-list-length-pps / no-multi-pass-opt-rps / scenecut-bias=0.05 / hist-threshold=0.03 / no-opt-cu-delta-qp / no-aq-motion / no-hdr10 / no-hdr10-opt / no-dhdr10-opt / no-idr-recovery-sei / analysis-reuse-level=0 / analysis-save-reuse-level=0 / analysis-load-reuse-level=0 / scale-factor=0 / refine-intra=0 / refine-inter=0 / refine-mv=1 / refine-ctu-distortion=0 / no-limit-sao / ctu-info=0 / no-lowpass-dct / refine-analysis-type=0 / copy-pic=1 / max-ausize-factor=1.0 / no-dynamic-refine / no-single-sei / no-hevc-aq / no-svt / no-field / qp-adaptation-range=1.00 / scenecut-aware-qp=0conformance-window-offsets / right=0 / bottom=0 / NTMzNTQ= / decoder-max-rate=0 / no-vbv-live-multi-pass

  34. Default : Yes

  35. Forced : No


  36. Audio #1

  37. ID : 2

  38. ID in the original source medium : 4354 (0x1102)

  39. Format : AC-3

  40. Format/Info : Audio Coding 3

  41. Commercial name : Dolby Digital

  42. Codec ID : A_AC3

  43. Duration : 1 h 58 min

  44. Bit rate mode : Constant

  45. Bit rate : 640 kb/s

  46. Channel(s) : 6 channels

  47. Channel layout : L R C LFE Ls Rs

  48. Sampling rate : 48.0 kHz

  49. Frame rate : 31.250 FPS (1536 SPF)

  50. Compression mode : Lossy

  51. Stream size : 545 MiB (6%)

  52. Title : Mandarin

  53. Language : Chinese

  54. Service kind : Complete Main

  55. Default : Yes

  56. Forced : No

  57. Original source medium : Blu-ray


  58. Audio #2

  59. ID : 3

  60. ID in the original source medium : 4352 (0x1100)

  61. Format : DTS

  62. Format/Info : Digital Theater Systems

  63. Codec ID : A_DTS

  64. Duration : 1 h 58 min

  65. Bit rate mode : Constant

  66. Bit rate : 1 509 kb/s

  67. Channel(s) : 6 channels

  68. Channel layout : C L R Ls Rs LFE

  69. Sampling rate : 48.0 kHz

  70. Frame rate : 93.750 FPS (512 SPF)

  71. Bit depth : 16 bits

  72. Compression mode : Lossy

  73. Stream size : 1.25 GiB (13%)

  74. Title : Cantonese

  75. Language : Chinese

  76. Default : No

  77. Forced : No

  78. Original source medium : Blu-ray


  79. Text #1

  80. ID : 4

  81. Format : ASS

  82. Codec ID : S_TEXT/ASS

  83. Codec ID/Info : Advanced Sub Station Alpha

  84. Duration : 1 h 56 min

  85. Bit rate : 80 b/s

  86. Count of elements : 1471

  87. Compression mode : Lossless

  88. Stream size : 68.5 KiB (0%)

  89. Title : chs

  90. Language : Chinese

  91. Default : Yes

  92. Forced : No


  93. Text #2

  94. ID : 5

  95. Format : ASS

  96. Codec ID : S_TEXT/ASS

  97. Codec ID/Info : Advanced Sub Station Alpha

  98. Duration : 1 h 56 min

  99. Bit rate : 82 b/s

  100. Count of elements : 1463

  101. Compression mode : Lossless

  102. Stream size : 69.9 KiB (0%)

  103. Title : cht

  104. Language : Chinese

  105. Default : No

  106. Forced : No


  107. Text #3

  108. ID : 6

  109. Format : UTF-8

  110. Codec ID : S_TEXT/UTF8

  111. Codec ID/Info : UTF-8 Plain Text

  112. Duration : 1 h 55 min

  113. Bit rate : 52 b/s

  114. Count of elements : 1457

  115. Stream size : 44.3 KiB (0%)

  116. Title : eng

  117. Language : English

  118. Default : No

  119. Forced : No


  120. Menu

  121. 00:00:00.000 : Chapter 01

  122. 00:07:20.125 : Chapter 02

  123. 00:11:35.791 : Chapter 03

  124. 00:16:43.458 : Chapter 04

  125. 00:22:22.958 : Chapter 05

  126. 00:28:11.541 : Chapter 06

  127. 00:35:04.708 : Chapter 07

  128. 00:44:17.416 : Chapter 08

  129. 00:47:50.416 : Chapter 09

  130. 00:55:52.291 : Chapter 10

  131. 01:01:59.541 : Chapter 11

  132. 01:07:50.000 : Chapter 12

  133. 01:12:18.375 : Chapter 13

  134. 01:22:07.916 : Chapter 14

  135. 01:27:11.666 : Chapter 15

  136. 01:33:22.291 : Chapter 16

  137. 01:39:19.375 : Chapter 17

  138. 01:42:32.750 : Chapter 18

  139. 01:48:23.375 : Chapter 19

  140. 01:55:38.166 : Chapter 20


文件下载


除非特别注明,本文『内衣少女[国粤语配音/中文字幕].La.Lingerie.2008.1080p.BluRay.x265.10bit.DTS.2Audio 9.60GB』来源于互联网机器人自动抓取,非本站原创。 浮游电影网不对本文拥有版权,如有侵犯,请联系邮箱:fuyouu#yandex.com[#换成@]投诉。我们会在15个工作日内删除。 但烦请转载时请标明出处:“本文转载于『浮游电影网』,原文地址:https://www.fuyouu.com/14609.html

评论吧骚年!

发表你的见解   

昵称*

E-mail*(建议输入,以便收到博主回复的提示邮件)

验证码*

您可以使用eMule或eMule Mod(Windows)、aMule(Win、Linux、Mac)等软件下载eD2k链接。。
eMule收藏集(.emulecollection)文件是您选中的所有链接的列表文件。eMule可以直接下载它们。
按住SHIFT键选择可以选中多个选择框。
可用文件名和大小选择器来选择文件。
文件名选择器帮您根据文件名称或后缀来选择文件。不分大小写。
符号使用:
和:空格( )、+
不包含:-
或:|
转义:一对英文引号("");
匹配开头:^
匹配结尾:$
例如:
选中所有名称中包含有“eMule”或“0.49c”字眼,但不包含有“exe”字眼的:emule|0.49c -exe
选中所有名称的开头是“eMule”,结尾是“0.49c”的:^emule 0.49c$
选中所有名称中带有“eMule 0.49c”的(必须是“eMule 0.49c”,中间没有别的字符,不能是“eMule fake 0.49c”),需要转义:"emule 0.49c"
大小选择器帮您根据文件大小选择文件。