当前位置: 首页 >> 港台电影 >> 绝世好Bra[国粤语配音/中文字幕].La.Brassiere.2001.1080p.BluRay.x265.10bit.DTS.2Audio 7.07GB >> 正文

绝世好Bra[国粤语配音/中文字幕].La.Brassiere.2001.1080p.BluRay.x265.10bit.DTS.2Audio 7.07GB

2021年09月28日 11:33:34     电影发布:来源于网络     电影分类:港台电影     评论(0)    

绝世好Bra[国粤语配音/中文字幕].La.Brassiere.2001.1080p.BluRay.x265.10bit.DTS.2Audio 7.07GB 爱情片 喜剧片 港台电影  第1张

◎译 名 绝世好Bra / La Brassiere / Chuet sai hiu bra

◎年 代 2001

◎产 地 中国香港

◎类 别 喜剧 / 爱情

◎语 言 粤语

◎上映日期 2001-09-27(中国香港)

◎IMDb链接 https://www.imdb.com/title/tt0306651/

◎豆瓣评分 5.8/10 (43406人评价)

◎豆瓣链接 https://movie.douban.com/subject/1306319/

◎片 长 105分钟

◎导 演 陈庆嘉 Hing-Ka Chan (id:1274234)

梁柏坚 Patrick Leung (id:1275513)

◎编 剧 钱小蕙 Amy Chin (id:1280660)

陈庆嘉 Hing-Ka Chan (id:1274234)

◎演 员 古天乐 Louis Koo (id:1027577)

刘青云 Sean Lau (id:1007251)

梁咏琪 Gigi Leung (id:1000975)

刘嘉玲 Carina Lau (id:1036905)

李珊珊 San-san Lee (id:1110339)

青山知可子 Chikako Aoyama (id:1010260)

卓韵芝 Cheuk Wan Chi (id:1094192)

莫文蔚 Karen Mok (id:1018248)

谷祖琳 Jolane Koo (id:1045825)

冯德伦 Stephen Fung (id:1023278)

田蕊妮 Kristal Tin (id:1275866)

谭耀文 Patrick Tam (id:1033280)

林慧倩 Giselle Lam (id:1380809)

陈慧仪 Wai Yee Chan (id:1323263)

黑泽明日香 Asuka Kurosawa (id:1037865)

樋口明日嘉 Asuka Higuchi (id:1051169)

虹萱 Rosemary Vandebrouck (id:1052276)

钱小蕙 Amy Chin (id:1280660)

乔纳森·韦斯勒 Jonathan Weissler (id:1028727)

陈庆嘉 Hing-Ka Chan (id:1274234)

毕国书 Jackson Pat (id:1335401)

黄国雄 Samuel Wong (id:1426248)

陈宝骏 Po-Chun Chan (id:1426242)

◎标 签 香港 / 喜剧 / 香港电影 / 古天乐 / 刘青云 / 爱情 / 搞笑 / 绝世好BRA

◎简 介

日本著名胸围公司的香港区总裁Samantha(刘嘉玲 饰)破例聘请了Johnny(刘青云 饰)和Wayne(古天乐 饰)两名男设计师。他们的上司高级设计师Lena(梁咏琪 饰)觉得他们根本无法胜任这份工作,因此常常刁难他们。公司要求他们设计出一款“绝世好Bra”,可是多次失败。

在工作的过程中,Johnny和Wayne分别与Smantha和Lena产生了感情,最后他们也在各自女友的帮忙下,才最终把“绝世好Bra”设计成功。

◎获奖情况 (共2项)

第2届华语电影传媒大奖 (2002)

最佳男演员(提名)

└──刘青云 (id:1007251)

最佳女主角(提名)

└──梁咏琪 (id:1000975)

  1. ##### MediaInfo ######

  2. General

  3. Unique ID : 143694826297663510174102747724774937681 (0x6C1A9DEBFAE236525E1D35C3CC689451)

  4. Complete name : [email protected]Q.COM.mkv

  5. Format : Matroska

  6. Format version : Version 4

  7. File size : 7.07 GiB

  8. Duration : 1 h 50 min

  9. Overall bit rate : 9 181 kb/s

  10. Movie name : La Brassiere - Blu-ray?

  11. Encoded date : UTC 2021-09-26 05:27:34

  12. Writing application : mkvmerge v61.0.0 ('So') 64-bit

  13. Writing library : libebml v1.4.2 + libmatroska v1.6.4

  14. Cover : Yes

  15. Attachments : WenQuanWeiMiHei-1.ttf / cover.jpg


  16. Video

  17. ID : 1

  18. Format : HEVC

  19. Format/Info : High Efficiency Video Coding

  20. Format profile : Main [email protected]@Main

  21. Codec ID : V_MPEGH/ISO/HEVC

  22. Duration : 1 h 50 min

  23. Bit rate : 7 025 kb/s

  24. Width : 1 920 pixels

  25. Height : 1 080 pixels

  26. Display aspect ratio : 16:9

  27. Frame rate mode : Constant

  28. Frame rate : 24.000 FPS

  29. Color space : YUV

  30. Chroma subsampling : 4:2:0

  31. Bit depth : 10 bits

  32. Bits/(Pixel*Frame) : 0.141

  33. Stream size : 5.41 GiB (77%)

  34. Writing library : x265 3.5+2-g2b25c9ba0+45:[Windows][GCC 10.2.0][64 bit] Yuuki 10bit+8bit+12bit

  35. Encoding settings : rc=crf / crf=18.5000 / qcomp=0.60 / qpstep=4 / stats-write=0 / stats-read=0 / no-lossless / no-cu-lossless / aq-mode=3 / aq-strength=0.70 / cbqpoffs=0 / crqpoffs=0 / ipratio=1.40 / pbratio=1.30 / psy-rd=2.00 / psy-rdoq=0.00 / deblock=0:0 / ref=6 / limit-refs=1 / no-limit-modes / bframes=8 / b-adapt=2 / bframe-bias=0 / b-pyramid / b-intra / weightp / weightb / min-keyint=24 / max-keyint=240 / rc-lookahead=24 / gop-lookahead=0 / NTMzNTQ=uuDQuD2mJt9fsCf / scenecut=40 / hist-scenecut=0 / radl=0 / max-cu-size=64 / min-cu-size=8 / me=3 / subme=7 / merange=48 / rdoq-level=0 / rd=4 / rdpenalty=0 / dynamic-rd=0.00 / no-rd-refine / ----- / cutree / sao / no-rect / no-amp / no-open-gop / wpp / no-pmode / pme / no-psnr / no-ssim / nr-intra=0 / nr-inter=0 / no-constrained-intra / no-strong-intra-smoothing / max-tu-size=32 / tu-inter-depth=1 / tu-intra-depth=1 / limit-tu=0 / qg-size=32 / qpmax=69 / qpmin=0 / ----- / cpuid=533541111039 / frame-threads=4 / numa-pools=+ / log-level=2 / input-csp=1 / input-res=1920x1080 / interlace=0 / level-idc=0 / high-tier=1 / uhd-bd=0 / no-allow-non-conformance / no-repeat-headers / aud / no-hrd / info / hash=0 / no-temporal-layers / lookahead-slices=0 / no-splice / no-intra-refresh / no-ssim-rd / signhide / no-tskip / max-merge=3 / temporal-mvp / no-frame-dup / no-hme / no-analyze-src-pics / no-sao-non-deblock / selective-sao=4 / early-skip / rskip / no-fast-intra / no-tskip-fast / no-splitrd-skip / zone-count=0 / no-strict-cbr / no-rc-grain / no-const-vbv / sar=0 / overscan=0 / videoformat=5 / range=0 / colorprim=2 / transfer=2 / colormatrix=2 / chromaloc=0 / display-window=0 / cll=0,0 / min-luma=0 / max-luma=1023 / log2-max-poc-lsb=8 / vui-timing-info / vui-hrd-info / slices=1 / no-opt-qp-pps / no-opt-ref-list-length-pps / no-multi-pass-opt-rps / scenecut-bias=0.05 / hist-threshold=0.03 / no-opt-cu-delta-qp / no-aq-motion / no-hdr10 / no-hdr10-opt / no-dhdr10-opt / no-idr-recovery-sei / analysis-reuse-level=0 / analysis-save-reuse-level=0 / analysis-load-reuse-level=0 / scale-factor=0 / refine-intra=0 / refine-inter=0 / refine-mv=1 / refine-ctu-distortion=0 / no-limit-sao / ctu-info=0 / no-lowpass-dct / refine-analysis-type=0 / copy-pic=1 / max-ausize-factor=1.0 / no-dynamic-refine / no-single-sei / no-hevc-aq / no-svt / no-field / qp-adaptation-range=1.00 / scenecut-aware-qp=0conformance-window-offsets / right=0 / bottom=0 / NTMzNTQ= / decoder-max-rate=0 / no-vbv-live-multi-pass

  36. Default : Yes

  37. Forced : No


  38. Audio #1

  39. ID : 2

  40. ID in the original source medium : 4353 (0x1101)

  41. Format : AC-3

  42. Format/Info : Audio Coding 3

  43. Commercial name : Dolby Digital

  44. Codec ID : A_AC3

  45. Duration : 1 h 50 min

  46. Bit rate mode : Constant

  47. Bit rate : 640 kb/s

  48. Channel(s) : 6 channels

  49. Channel layout : L R C LFE Ls Rs

  50. Sampling rate : 48.0 kHz

  51. Frame rate : 31.250 FPS (1536 SPF)

  52. Compression mode : Lossy

  53. Delay relative to video : 2 s 0 ms

  54. Stream size : 504 MiB (7%)

  55. Title : Mandarin

  56. Language : Chinese

  57. Service kind : Complete Main

  58. Default : Yes

  59. Forced : No

  60. Original source medium : Blu-ray


  61. Audio #2

  62. ID : 3

  63. Format : DTS

  64. Format/Info : Digital Theater Systems

  65. Codec ID : A_DTS

  66. Duration : 1 h 50 min

  67. Bit rate mode : Constant

  68. Bit rate : 1 510 kb/s

  69. Channel(s) : 6 channels

  70. Channel layout : C L R Ls Rs LFE

  71. Sampling rate : 48.0 kHz

  72. Frame rate : 93.750 FPS (512 SPF)

  73. Bit depth : 24 bits

  74. Compression mode : Lossy

  75. Stream size : 1.16 GiB (16%)

  76. Title : Cantonese

  77. Language : Chinese

  78. Default : Yes

  79. Forced : No


  80. Text #1

  81. ID : 4

  82. Format : ASS

  83. Codec ID : S_TEXT/ASS

  84. Codec ID/Info : Advanced Sub Station Alpha

  85. Duration : 1 h 47 min

  86. Bit rate : 94 b/s

  87. Count of elements : 1561

  88. Compression mode : Lossless

  89. Stream size : 74.4 KiB (0%)

  90. Title : chs

  91. Language : Chinese

  92. Default : Yes

  93. Forced : No


  94. Text #2

  95. ID : 5

  96. Format : ASS

  97. Codec ID : S_TEXT/ASS

  98. Codec ID/Info : Advanced Sub Station Alpha

  99. Duration : 1 h 47 min

  100. Bit rate : 94 b/s

  101. Count of elements : 1561

  102. Compression mode : Lossless

  103. Stream size : 74.4 KiB (0%)

  104. Title : cht

  105. Language : Chinese

  106. Default : No

  107. Forced : No


  108. Text #3

  109. ID : 6

  110. Format : UTF-8

  111. Codec ID : S_TEXT/UTF8

  112. Codec ID/Info : UTF-8 Plain Text

  113. Duration : 1 h 47 min

  114. Bit rate : 57 b/s

  115. Count of elements : 1561

  116. Stream size : 45.1 KiB (0%)

  117. Title : eng

  118. Language : English

  119. Default : No

  120. Forced : No


  121. Menu

  122. 00:00:00.000 : Chapter 01

  123. 00:05:21.625 : Chapter 02

  124. 00:11:05.291 : Chapter 03

  125. 00:18:33.666 : Chapter 04

  126. 00:23:37.208 : Chapter 05

  127. 00:28:51.166 : Chapter 06

  128. 00:33:20.333 : Chapter 07

  129. 00:40:37.833 : Chapter 08

  130. 00:44:58.208 : Chapter 09

  131. 00:48:35.916 : Chapter 10

  132. 00:56:22.791 : Chapter 11

  133. 01:03:10.666 : Chapter 12

  134. 01:07:50.958 : Chapter 13

  135. 01:14:56.708 : Chapter 14

  136. 01:20:27.666 : Chapter 15

  137. 01:26:27.916 : Chapter 16

  138. 01:31:27.625 : Chapter 17

  139. 01:35:01.875 : Chapter 18

  140. 01:39:55.958 : Chapter 19

  141. 01:44:57.333 : Chapter 20


文件下载


除非特别注明,本文『绝世好Bra[国粤语配音/中文字幕].La.Brassiere.2001.1080p.BluRay.x265.10bit.DTS.2Audio 7.07GB』来源于互联网机器人自动抓取,非本站原创。 浮游电影网不对本文拥有版权,如有侵犯,请联系邮箱:fuyouu#yandex.com[#换成@]投诉。我们会在15个工作日内删除。 但烦请转载时请标明出处:“本文转载于『浮游电影网』,原文地址:https://5.189.174.242/14608.html

评论吧骚年!

发表你的见解   

昵称*

E-mail*(建议输入,以便收到博主回复的提示邮件)

验证码*

您可以使用eMule或eMule Mod(Windows)、aMule(Win、Linux、Mac)等软件下载eD2k链接。。
eMule收藏集(.emulecollection)文件是您选中的所有链接的列表文件。eMule可以直接下载它们。
按住SHIFT键选择可以选中多个选择框。
可用文件名和大小选择器来选择文件。
文件名选择器帮您根据文件名称或后缀来选择文件。不分大小写。
符号使用:
和:空格( )、+
不包含:-
或:|
转义:一对英文引号("");
匹配开头:^
匹配结尾:$
例如:
选中所有名称中包含有“eMule”或“0.49c”字眼,但不包含有“exe”字眼的:emule|0.49c -exe
选中所有名称的开头是“eMule”,结尾是“0.49c”的:^emule 0.49c$
选中所有名称中带有“eMule 0.49c”的(必须是“eMule 0.49c”,中间没有别的字符,不能是“eMule fake 0.49c”),需要转义:"emule 0.49c"
大小选择器帮您根据文件大小选择文件。