当前位置: 首页 >> 日韩电影 >> 少女[中文字幕].Steel.Cold.Winter.2013.1080p.FriDay.WEB-DL.H264.AAC 3.05GB >> 正文

少女[中文字幕].Steel.Cold.Winter.2013.1080p.FriDay.WEB-DL.H264.AAC 3.05GB

2021年09月27日 15:37:14     电影发布:来源于网络     电影分类:日韩电影     评论(0)    

少女[中文字幕].Steel.Cold.Winter.2013.1080p.FriDay.WEB DL.H264.AAC 3.05GB 悬疑片 惊悚片 爱情片 日韩电影  第1张

◎译 名 少女 / Steel Cold Winter

◎片 名 ??

◎年 代 2013

◎产 地 韩国

◎类 别 爱情 / 悬疑 / 惊悚

◎语 言 韩语

◎上映日期 2013-11-07

◎IMDb链接 https://www.imdb.com/title/tt3180652/

◎豆瓣评分 6.0/10 (2102人评价)

◎豆瓣链接 https://movie.douban.com/subject/25733874/

◎片 长 110分钟

◎导 演 崔真星 Jin-seong Choe (id:1320183)

◎演 员 金时厚 Shi-hoo Kim (id:1015180)

金允慧 Yun-Hye Kim (id:1325315)

尹敬浩 Kyung-ho Yoon (id:1355317)

奇周峯 Joo-bong Ki (id:1051277)

朴素丹 So-dam Park (id:1343344)

徐贤宇 Seo Hyeon-woo (id:1379938)

朴镇宇 Park Jin-woo (id:1376719)

张仁燮 In-sub Jang (id:1386578)

文昌吉 Moon Chang-gil (id:1390310)

韩熙荣 Hee-jung Han (id:1384372)

郑仁基 In-gi Jeong (id:1320459)

千贞河 Chun Jung-Ha (id:1456076)

Won-ho Son Won-ho Son (id:1450043)

◎标 签 韩国 / 爱情 / 人性 / 悬疑 / 犯罪 / 青春 / 惊悚 / 2013

◎简 介

该片是由崔振成导演执导,以江原道湖边山村为背景,有着融合神秘恐怖气氛和少年少女暧昧情愫的“血色浪漫”,然而随着爱情的深入,少年和少女慢慢却变成了加害者和被害者的关系。

◎获奖情况 (共1项)

第18届釜山国际电影节 (2013)

新浪潮奖(提名)

└──崔真星 (id:1320183)

  1. ##### MediaInfo ######

  2. General

  3. Unique ID : 243180594311233349150313467725169946865 (0xB6F2E0FC2B2F51A18386F446AD05F0F1)

  4. Complete name : [email protected].COM.mkv

  5. Format : Matroska

  6. Format version : Version 4

  7. File size : 3.05 GiB

  8. Duration : 1 h 49 min

  9. Overall bit rate : 3 983 kb/s

  10. Encoded date : UTC 2021-09-25 05:14:42

  11. Writing application : mkvmerge v56.1.0 ('My Friend') 64-bit

  12. Writing library : libebml v1.4.2 + libmatroska v1.6.4


  13. Video

  14. ID : 1

  15. Format : AVC

  16. Format/Info : Advanced Video Codec

  17. Format profile : [email protected]

  18. Format settings : CABAC / 1 Ref Frames

  19. Format settings, CABAC : Yes

  20. Format settings, Reference frames : 1 frame

  21. Format settings, GOP : M=1, N=60

  22. Codec ID : V_MPEG4/ISO/AVC

  23. Duration : 1 h 49 min

  24. Bit rate mode : Constant

  25. Bit rate : 4 000 kb/s

  26. Width : 1 920 pixels

  27. Height : 1 080 pixels

  28. Display aspect ratio : 16:9

  29. Frame rate mode : Constant

  30. Frame rate : 29.970 (30000/1001/53354) FPS

  31. Color space : YUV

  32. Chroma subsampling : 4:2:0

  33. Bit depth : 8 bits

  34. Scan type : Progressive

  35. Bits/(Pixel*Frame) : 0.064

  36. Stream size : 2.95 GiB (97%)

  37. Language : English

  38. Default : Yes

  39. Forced : No


  40. Audio

  41. ID : 2

  42. Format : AAC LC

  43. Format/Info : Advanced Audio Codec Low Complexity

  44. Codec ID : A_AAC-2

  45. Duration : 1 h 49 min

  46. Bit rate : 125 kb/s

  47. Channel(s) : 2 channels

  48. Channel layout : L R

  49. Sampling rate : 48.0 kHz

  50. Frame rate : 46.875 FPS (1024 SPF)

  51. Compression mode : Lossy

  52. Stream size : 98.3 MiB (3%)

  53. Title : Korean

  54. Language : Korean

  55. Default : Yes

  56. Forced : No


  57. Text #1

  58. ID : 3

  59. Format : UTF-8

  60. Codec ID : S_TEXT/UTF8

  61. Codec ID/Info : UTF-8 Plain Text

  62. Duration : 1 h 44 min

  63. Bit rate : 16 b/s

  64. Count of elements : 608

  65. Stream size : 12.7 KiB (0%)

  66. Title : Chinese Simplified

  67. Language : Chinese

  68. Default : Yes

  69. Forced : No


  70. Text #2

  71. ID : 4

  72. Format : UTF-8

  73. Codec ID : S_TEXT/UTF8

  74. Codec ID/Info : UTF-8 Plain Text

  75. Duration : 1 h 44 min

  76. Bit rate : 16 b/s

  77. Count of elements : 608

  78. Stream size : 12.7 KiB (0%)

  79. Title : Chinese Traditional

  80. Language : Chinese

  81. Default : No

  82. Forced : No


文件下载


除非特别注明,本文『少女[中文字幕].Steel.Cold.Winter.2013.1080p.FriDay.WEB-DL.H264.AAC 3.05GB』来源于互联网机器人自动抓取,非本站原创。 浮游电影网不对本文拥有版权,如有侵犯,请联系邮箱:fuyouu#yandex.com[#换成@]投诉。我们会在15个工作日内删除。 但烦请转载时请标明出处:“本文转载于『浮游电影网』,原文地址:https://www.fuyouu.com/14605.html

评论吧骚年!

发表你的见解   

昵称*

E-mail*(建议输入,以便收到博主回复的提示邮件)

验证码*

您可以使用eMule或eMule Mod(Windows)、aMule(Win、Linux、Mac)等软件下载eD2k链接。。
eMule收藏集(.emulecollection)文件是您选中的所有链接的列表文件。eMule可以直接下载它们。
按住SHIFT键选择可以选中多个选择框。
可用文件名和大小选择器来选择文件。
文件名选择器帮您根据文件名称或后缀来选择文件。不分大小写。
符号使用:
和:空格( )、+
不包含:-
或:|
转义:一对英文引号("");
匹配开头:^
匹配结尾:$
例如:
选中所有名称中包含有“eMule”或“0.49c”字眼,但不包含有“exe”字眼的:emule|0.49c -exe
选中所有名称的开头是“eMule”,结尾是“0.49c”的:^emule 0.49c$
选中所有名称中带有“eMule 0.49c”的(必须是“eMule 0.49c”,中间没有别的字符,不能是“eMule fake 0.49c”),需要转义:"emule 0.49c"
大小选择器帮您根据文件大小选择文件。