当前位置: 首页 >> 日韩电影 >> 车警官[中文字幕].Runway.Cop.2012.1080p.FriDay.WEB-DL.H264.AAC 2.94GB >> 正文

车警官[中文字幕].Runway.Cop.2012.1080p.FriDay.WEB-DL.H264.AAC 2.94GB

2021年09月27日 15:36:16     电影发布:来源于网络     电影分类:日韩电影     评论(0)    

车警官[中文字幕].Runway.Cop.2012.1080p.FriDay.WEB DL.H264.AAC 2.94GB 爱情片 喜剧片 日韩电影  第1张

◎译 名 车警官 / 车警察 / Runway Cop

◎片 名 ???

◎年 代 2012

◎产 地 韩国

◎类 别 喜剧 / 爱情

◎语 言 韩语

◎上映日期 2012-05-30(韩国)

◎IMDb链接 https://www.imdb.com/title/tt2182095/

◎豆瓣评分 6.2/10 (6047人评价)

◎豆瓣链接 https://movie.douban.com/subject/6886490/

◎片 长 110分钟

◎导 演 申太罗 Terra Shin (id:1322348)

◎编 剧 高英宰 Yeong-zea Ko (id:1322349)

◎演 员 姜至奂 Ji-Hwan Kang (id:1230764)

成宥利 Yu-ri Sung (id:1033874)

金英光 Young-kwang Kim (id:1315485)

李洙赫 Soo-hyuk Lee (id:1313466)

申敏哲 Min-cheol Shin (id:1328804)

金正碧 Jung-pal Kim (id:1380175)

李泰亨 Tae-hyung Lee (id:1379903)

孙炳旭 Son Byeong-wook (id:1381924)

金旼京 Min-kyeong Kim (id:1400085)

朴宝剑 Bo-Gum Park (id:1342125)

李恩彩 Eun-Chae Lee (id:1456756)

孙贤宇 Son Hyun-woo (id:1379496)

罗美兰 Mi-ran Ra (id:1329322)

李熙俊 Hee-jun Lee (id:1326499)

金宇彬 Woo-bin Kim (id:1316155)

申正根 Jeong-geun Sin (id:1321885)

◎标 签 韩国 / 喜剧 / 搞笑 / 2012 / 警匪 / 动作 / 爱情 / 模特

◎简 介

相貌平平的车哲秀(姜至奂 饰)是一名业务干练的警官,但是他生活邋遢懒散,臭气熏天,出警用的车内堆满几百年没洗的脏衣服,脱下的臭袜子能直立站住,混在嫌疑犯堆儿里总会被受害人指认。某天,上司交给他和伙伴们一项重要任务,让他们派人假冒模特混入服装界,充当当红模特金善浩的保镖。所谓保镖,实际上是暗中搜查金善浩的犯罪证据。这个表面光鲜的模特暗中从事毒品勾当,甚至还杀害了此前监视他的警察。阴差阳错之下,车哲秀被选为卧底,借此机会还重逢了高中喜欢的女孩高英才。

不过为了成为合格的模特,痴肥的车警官不得不在英才的监督下开始了减肥和培训的大业……

◎获奖情况 (共2项)

第49届百想艺术大赏 (2013)

电影类 最佳人气男演员(提名)

└──姜至奂 (id:1230764)

电影类 最佳人气女演员(提名)

└──成宥利 (id:1033874)

  1. ##### MediaInfo ######

  2. General

  3. Unique ID : 194096540454739588793407998928522887745 (0x9205A249A77F0284062E1BD4329CC241)

  4. Complete name : [email protected]v

  5. Format : Matroska

  6. Format version : Version 4

  7. File size : 2.93 GiB

  8. Duration : 1 h 50 min

  9. Overall bit rate : 3 798 kb/s

  10. Encoded date : UTC 2021-09-25 04:43:58

  11. Writing application : mkvmerge v56.1.0 ('My Friend') 64-bit

  12. Writing library : libebml v1.4.2 + libmatroska v1.6.4


  13. Video

  14. ID : 1

  15. Format : AVC

  16. Format/Info : Advanced Video Codec

  17. Format profile : [email protected]

  18. Format settings : CABAC / 1 Ref Frames

  19. Format settings, CABAC : Yes

  20. Format settings, Reference frames : 1 frame

  21. Format settings, GOP : M=1, N=60

  22. Codec ID : V_MPEG4/ISO/AVC

  23. Duration : 1 h 50 min

  24. Bit rate mode : Constant

  25. Bit rate : 3 669 kb/s

  26. Nominal bit rate : 4 000 kb/s

  27. Width : 1 920 pixels

  28. Height : 1 080 pixels

  29. Display aspect ratio : 16:9

  30. Frame rate mode : Constant

  31. Frame rate : 29.970 (30000/1001/53354) FPS

  32. Color space : YUV

  33. Chroma subsampling : 4:2:0

  34. Bit depth : 8 bits

  35. Scan type : Progressive

  36. Bits/(Pixel*Frame) : 0.059

  37. Stream size : 2.83 GiB (97%)

  38. Language : English

  39. Default : Yes

  40. Forced : No


  41. Audio

  42. ID : 2

  43. Format : AAC LC

  44. Format/Info : Advanced Audio Codec Low Complexity

  45. Codec ID : A_AAC-2

  46. Duration : 1 h 50 min

  47. Bit rate : 125 kb/s

  48. Channel(s) : 2 channels

  49. Channel layout : L R

  50. Sampling rate : 48.0 kHz

  51. Frame rate : 46.875 FPS (1024 SPF)

  52. Compression mode : Lossy

  53. Stream size : 99.2 MiB (3%)

  54. Title : Korean

  55. Language : Korean

  56. Default : Yes

  57. Forced : No


  58. Text #1

  59. ID : 3

  60. Format : UTF-8

  61. Codec ID : S_TEXT/UTF8

  62. Codec ID/Info : UTF-8 Plain Text

  63. Duration : 1 h 46 min

  64. Bit rate : 41 b/s

  65. Count of elements : 1622

  66. Stream size : 32.6 KiB (0%)

  67. Title : Chinese Simplified

  68. Language : Chinese

  69. Default : Yes

  70. Forced : No


  71. Text #2

  72. ID : 4

  73. Format : UTF-8

  74. Codec ID : S_TEXT/UTF8

  75. Codec ID/Info : UTF-8 Plain Text

  76. Duration : 1 h 46 min

  77. Bit rate : 41 b/s

  78. Count of elements : 1622

  79. Stream size : 32.6 KiB (0%)

  80. Title : Chinese Traditional

  81. Language : Chinese

  82. Default : No

  83. Forced : No


文件下载


除非特别注明,本文『车警官[中文字幕].Runway.Cop.2012.1080p.FriDay.WEB-DL.H264.AAC 2.94GB』来源于互联网机器人自动抓取,非本站原创。 浮游电影网不对本文拥有版权,如有侵犯,请联系邮箱:fuyouu#yandex.com[#换成@]投诉。我们会在15个工作日内删除。 但烦请转载时请标明出处:“本文转载于『浮游电影网』,原文地址:https://www.fuyouu.com/14604.html

评论吧骚年!

发表你的见解   

昵称*

E-mail*(建议输入,以便收到博主回复的提示邮件)

验证码*

您可以使用eMule或eMule Mod(Windows)、aMule(Win、Linux、Mac)等软件下载eD2k链接。。
eMule收藏集(.emulecollection)文件是您选中的所有链接的列表文件。eMule可以直接下载它们。
按住SHIFT键选择可以选中多个选择框。
可用文件名和大小选择器来选择文件。
文件名选择器帮您根据文件名称或后缀来选择文件。不分大小写。
符号使用:
和:空格( )、+
不包含:-
或:|
转义:一对英文引号("");
匹配开头:^
匹配结尾:$
例如:
选中所有名称中包含有“eMule”或“0.49c”字眼,但不包含有“exe”字眼的:emule|0.49c -exe
选中所有名称的开头是“eMule”,结尾是“0.49c”的:^emule 0.49c$
选中所有名称中带有“eMule 0.49c”的(必须是“eMule 0.49c”,中间没有别的字符,不能是“eMule fake 0.49c”),需要转义:"emule 0.49c"
大小选择器帮您根据文件大小选择文件。