当前位置: 首页 >> 日韩电影 >> 柏林[中文字幕].The.Berlin.File.2013.1080p.WEB-DL.H265.AAC 2.28GB >> 正文

柏林[中文字幕].The.Berlin.File.2013.1080p.WEB-DL.H265.AAC 2.28GB

2021年09月27日 15:34:07     电影发布:来源于网络     电影分类:日韩电影     评论(0)    

柏林[中文字幕].The.Berlin.File.2013.1080p.WEB DL.H265.AAC 2.28GB 惊悚片 动作片 剧情片 日韩电影  第1张

◎译 名 柏林 / 柏林谍变(港) / 柏林谍战(台) / 柏林档案 / Bereullin / The Berlin File / In Berlin

◎片 名 ???

◎年 代 2013

◎产 地 韩国

◎类 别 剧情 / 动作 / 惊悚

◎语 言 韩语

◎上映日期 2013-01-31(韩国)

◎IMDb链接 https://www.imdb.com/title/tt2357377/

◎豆瓣评分 7.5/10 (58424人评价)

◎豆瓣链接 https://movie.douban.com/subject/6886518/

◎片 长 120分钟

◎导 演 柳昇完 Seung-wan Ryoo (id:1138335)

◎编 剧 柳昇完 Seung-wan Ryoo (id:1138335)

◎演 员 河正宇 Jung-woo Ha (id:1032680)

韩石圭 Suk-kyu Han (id:1037285)

全智贤 Gianna Jun (id:1035649)

柳昇范 Seung-beom Ryu (id:1023431)

郭度沅 Do-Won Kwak (id:1320516)

金瑞亨 Seo-hyung Kim (id:1042142)

李璟荣 Kyeong-yeong Lee (id:1039491)

泰丰·巴德姆索 Tayfun Bademsoy (id:1060575)

托马斯·蒂梅 Thomas Thieme (id:1154507)

帕斯奎尔·阿莱亚尔迪 Pasquale Aleardi (id:1061081)

尹钟彬 Jong-bin Yoon (id:1320263)

潘芳芳 Fong Fong Poon (id:1324440)

杨志洙 Ji-soo Yang (id:1389427)

Sinja Dieks Sinja Dieks (id:1373677)

纽曼·阿卡 Numan Acar (id:1344727)

明桂南 Gye-nam Myeong (id:1134600)

约翰·基奥 John Keogh (id:1329753)

维尔纳·德恩 Werner Daehn (id:1329750)

崔武成 Moo-seong Choi (id:1339598)

曹永旭 Yeong-wook Jo (id:1287735)

崔永桓 Yeong-hwan Choi (id:1280703)

金尚范 Sang-bum Kim (id:1288546)

朴世上 Noo-ri Park (id:1413258)

郑斗洪 Doo-hong Jung (id:1109833)

◎标 签 韩国 / 动作 / 谍战 / 特工 / 间谍 / 悬疑 / 犯罪 / 2013

◎简 介

德国首都柏林,一起失败的军火交易使朝韩各方势力的对抗趋近白热化。朝鲜大使李学秀(李庆荣 饰)及间谍表宗盛(河正宇 饰)发现来自祖国的另一名冷血间谍董明秀(柳承范 饰)现身柏林,政权更迭让多年漂泊海外的他们心中充满不祥预感。在此期间,宗盛不得不遵照党的指示监视妻子——大使贴身翻译莲贞熙(全智贤 饰)的行踪。另一方面,在追查军火交易行动中遭受挫折的韩国情报机构负责人姜部长(韩石圭 饰)不甘失败,持续追查宗盛的踪迹。

在大使叛逃计划失败后,宗盛得知董明秀来到柏林的真正目的。为了避免成为权力斗争的牺牲品和肃清对象,他只得带着妻子绝路逃亡……

◎获奖情况 (共16项)

第34届韩国电影青龙奖 (2013)

最佳影片(提名)

最佳导演(提名)

└──柳昇完 (id:1138335)

最佳摄影

最佳美术(提名)

最佳照明

技术奖(提名)

第49届百想艺术大赏 (2013)

电影类 最佳影片(提名)

└──柳昇完 (id:1138335)

电影类 最佳导演(提名)

└──柳昇完 (id:1138335)

电影类 最佳男主角

└──河正宇 (id:1032680)

电影类 最佳人气男演员(提名)

第50届韩国电影大钟奖 (2013)

最佳影片(提名)

最佳摄影

最佳剪辑(提名)

最佳美术(提名)

最佳服装(提名)

最佳照明

  1. ##### MediaInfo ######

  2. General

  3. Unique ID : 270819532481468597517690916212595845628 (0xCBBDF1D8B7C1C4FEB3DFDB68F16969FC)

  4. Complete name : [email protected]

  5. Format : Matroska

  6. Format version : Version 4

  7. File size : 2.27 GiB

  8. Duration : 2 h 0 min

  9. Overall bit rate : 2 707 kb/s

  10. Encoded date : UTC 2021-09-25 06:09:34

  11. Writing application : mkvmerge v56.1.0 ('My Friend') 64-bit

  12. Writing library : libebml v1.4.2 + libmatroska v1.6.4


  13. Video

  14. ID : 1

  15. Format : HEVC

  16. Format/Info : High Efficiency Video Coding

  17. Format profile : [email protected]@Main

  18. Codec ID : V_MPEGH/ISO/HEVC

  19. Duration : 2 h 0 min

  20. Bit rate : 2 515 kb/s

  21. Width : 1 920 pixels

  22. Height : 840 pixels

  23. Display aspect ratio : 2.25:1

  24. Frame rate mode : Constant

  25. Frame rate : 24.000 FPS

  26. Color space : YUV

  27. Chroma subsampling : 4:2:0

  28. Bit depth : 8 bits

  29. Bits/(Pixel*Frame) : 0.065

  30. Stream size : 2.11 GiB (93%)

  31. Default : Yes

  32. Forced : No


  33. Audio

  34. ID : 2

  35. Format : AAC LC

  36. Format/Info : Advanced Audio Codec Low Complexity

  37. Codec ID : A_AAC-2

  38. Duration : 2 h 0 min

  39. Bit rate : 192 kb/s

  40. Channel(s) : 2 channels

  41. Channel layout : L R

  42. Sampling rate : 44.1 kHz

  43. Frame rate : 43.066 FPS (1024 SPF)

  44. Compression mode : Lossy

  45. Stream size : 163 MiB (7%)

  46. Language : Korean

  47. Default : Yes

  48. Forced : No


  49. Text #1

  50. ID : 3

  51. Format : UTF-8

  52. Codec ID : S_TEXT/UTF8

  53. Codec ID/Info : UTF-8 Plain Text

  54. Duration : 1 h 55 min

  55. Bit rate : 29 b/s

  56. Count of elements : 1074

  57. Stream size : 25.4 KiB (0%)

  58. Title : Chinese Simplified

  59. Language : Chinese

  60. Default : Yes

  61. Forced : No


  62. Text #2

  63. ID : 4

  64. Format : UTF-8

  65. Codec ID : S_TEXT/UTF8

  66. Codec ID/Info : UTF-8 Plain Text

  67. Duration : 1 h 55 min

  68. Bit rate : 29 b/s

  69. Count of elements : 1074

  70. Stream size : 25.4 KiB (0%)

  71. Title : Chinese Traditional

  72. Language : Chinese

  73. Default : No

  74. Forced : No


  75. Text #3

  76. ID : 5

  77. Format : UTF-8

  78. Codec ID : S_TEXT/UTF8

  79. Codec ID/Info : UTF-8 Plain Text

  80. Duration : 1 h 55 min

  81. Bit rate : 37 b/s

  82. Count of elements : 999

  83. Stream size : 31.4 KiB (0%)

  84. Title : English

  85. Language : English

  86. Default : No

  87. Forced : No


文件下载


除非特别注明,本文『柏林[中文字幕].The.Berlin.File.2013.1080p.WEB-DL.H265.AAC 2.28GB』来源于互联网机器人自动抓取,非本站原创。 浮游电影网不对本文拥有版权,如有侵犯,请联系邮箱:fuyouu#yandex.com[#换成@]投诉。我们会在15个工作日内删除。 但烦请转载时请标明出处:“本文转载于『浮游电影网』,原文地址:https://www.fuyouu.com/14603.html

评论吧骚年!

发表你的见解   

昵称*

E-mail*(建议输入,以便收到博主回复的提示邮件)

验证码*

您可以使用eMule或eMule Mod(Windows)、aMule(Win、Linux、Mac)等软件下载eD2k链接。。
eMule收藏集(.emulecollection)文件是您选中的所有链接的列表文件。eMule可以直接下载它们。
按住SHIFT键选择可以选中多个选择框。
可用文件名和大小选择器来选择文件。
文件名选择器帮您根据文件名称或后缀来选择文件。不分大小写。
符号使用:
和:空格( )、+
不包含:-
或:|
转义:一对英文引号("");
匹配开头:^
匹配结尾:$
例如:
选中所有名称中包含有“eMule”或“0.49c”字眼,但不包含有“exe”字眼的:emule|0.49c -exe
选中所有名称的开头是“eMule”,结尾是“0.49c”的:^emule 0.49c$
选中所有名称中带有“eMule 0.49c”的(必须是“eMule 0.49c”,中间没有别的字符,不能是“eMule fake 0.49c”),需要转义:"emule 0.49c"
大小选择器帮您根据文件大小选择文件。