当前位置: 首页 >> 国产电影 >> 城市游戏[国语配音/中文字幕].Urban.Games.2014.1080p.HDR.WEB-DL.H265.AAC 1.61GB >> 正文

城市游戏[国语配音/中文字幕].Urban.Games.2014.1080p.HDR.WEB-DL.H265.AAC 1.61GB

2021年09月27日 15:33:07     电影发布:来源于网络     电影分类:国产电影     评论(0)    

城市游戏[国语配音/中文字幕].Urban.Games.2014.1080p.HDR.WEB DL.H265.AAC 1.61GB 惊悚片 动作片 国产电影  第1张

◎译 名 城市游戏 / Urban Games

◎年 代 2014

◎产 地 中国大陆 / 美国

◎类 别 动作 / 惊悚

◎语 言 汉语普通话 / 韩语

◎上映日期 2014-05-16(中国大陆)

◎IMDb链接 https://www.imdb.com/title/tt1170380/

◎豆瓣评分 3.4/10 (1968人评价)

◎豆瓣链接 https://movie.douban.com/subject/20284939/

◎片 长 87分钟

◎导 演 鲍勃·布朗 Bob Brown (id:1279414)

张鹏 Peng Zhang (id:1307141)

◎编 剧 鲍勃·布朗 Bob Brown (id:1279414)

马克·杰克逊 Mark Jackson (id:1326678)

◎演 员 窦骁 Shawn Dou (id:1274225)

陈妍希 Michelle Chen (id:1313303)

释小龙 Siu Lung Sik (id:1014738)

叶青 Qing Ye (id:1315746)

周韦彤 Cica Zhou (id:1275947)

金俊浩 Jun Ho Kim (id:1326677)

胡然 Michelle Hu (id:1328398)

王尉 Wei Wang (id:1378159)

冀涛 Tao Ji (id:1342564)

柳文欢 Wenhuan Liu (id:1406672)

贺宽 Kuan He (id:1368623)

戴澴雨 Anthony Tai (id:1355824)

曹帅 Shuai Cao (id:1319306)

杨政 Zheng Yang (id:1338096)

黄柏钧 Denny Huang (id:1321304)

罗伟 Robert Gilabert Cuenca (id:1340969)

王春妹 Chunmei Wang (id:1357659)

何丽嫦 Lorraine Ho (id:1418364)

韩三平 Sanping Han (id:1274843)

林建岳 Peter Lam (id:1340495)

赵海城 Haicheng Zhao (id:1392082)

凌红 Hong Ling (id:1392083)

彭鸣宇 Mingyu Peng (id:1446113)

杨东 Dong Yang (id:1403121)

崔陆萌 Lumeng Cui (id:1349292)

陈丹 Dan Chen (id:1414812)

孟佩璁 Peicong Meng (id:1316673)

许迪文 Dik-Man Hui (id:1349009)

◎标 签 城市游戏 / 动作 / 极限运动 / 陈妍希 / 释小龙 / 中国 / 中国电影 / 剧情

◎简 介

玮柏(窦骁 饰)和哥哥都是极限运动爱好者,一场意外中,玮柏的哥哥不幸死于非命,玮柏将其中的过错都怪到了自己的头上,成日活在深深的自责之中。白天,玮柏只是一介名不见经传的小小职员,入夜,他则化身为自由奔跑在大街小巷之中的跑酷运动者,尽情挥洒心中的郁闷。

某日,玮柏得到了一段妹妹西黛(叶青 饰)被绑架的视频,追随着视频中的线索,玮柏千里迢迢赶往了韩国。在那里,跑酷已经成为了一项十分流行的运动,而玮柏若想救出西黛,就必须在名为“UG”的跑酷大赛上夺得头筹。面对诸多强大的对手,人生地不熟的玮柏能够获得最后的胜利吗?

  1. ##### MediaInfo ######

  2. General

  3. Unique ID : 14593712832316856973102932168450381630 (0xAFAA5983F3AD6948F032A876286173E)

  4. Complete name : [email protected]

  5. Format : Matroska

  6. Format version : Version 4

  7. File size : 1.61 GiB

  8. Duration : 1 h 28 min

  9. Overall bit rate : 2 613 kb/s

  10. Encoded date : UTC 2021-09-25 07:32:44

  11. Writing application : mkvmerge v49.0.0 ('Sick Of Losing Soulmates') 64-bit

  12. Writing library : libebml v1.4.0 + libmatroska v1.6.1


  13. Video

  14. ID : 1

  15. Format : HEVC

  16. Format/Info : High Efficiency Video Coding

  17. Format profile : Main [email protected]@Main

  18. HDR format : SMPTE ST 2086, HDR10 compatible

  19. Codec ID : V_MPEGH/ISO/HEVC

  20. Duration : 1 h 28 min

  21. Bit rate : 2 487 kb/s

  22. Width : 1 920 pixels

  23. Height : 816 pixels

  24. Display aspect ratio : 2.35:1

  25. Frame rate mode : Constant

  26. Frame rate : 25.000 FPS

  27. Color space : YUV

  28. Chroma subsampling : 4:2:0

  29. Bit depth : 10 bits

  30. Bits/(Pixel*Frame) : 0.063

  31. Stream size : 1.53 GiB (95%)

  32. Default : Yes

  33. Forced : No

  34. Color range : Limited

  35. Color primaries : BT.2020

  36. Transfer characteristics : PQ

  37. Matrix coefficients : BT.2020 non-constant

  38. Mastering display color primaries : R: x=0.708000 y=0.292000, G: x=0.170000 y=0.797000, B: x=0.130000 y=0.046000, White point: x=0.312700 y=0.329000

  39. Mastering display luminance : min: 0.0000 cd/m2, max: 0 cd/m2


  40. Audio

  41. ID : 2

  42. Format : AAC LC

  43. Format/Info : Advanced Audio Codec Low Complexity

  44. Codec ID : A_AAC-2

  45. Duration : 1 h 28 min

  46. Bit rate : 124 kb/s

  47. Channel(s) : 2 channels

  48. Channel layout : L R

  49. Sampling rate : 44.1 kHz

  50. Frame rate : 43.066 FPS (1024 SPF)

  51. Compression mode : Lossy

  52. Stream size : 78.5 MiB (5%)

  53. Language : Chinese

  54. Default : Yes

  55. Forced : No


文件下载


除非特别注明,本文『城市游戏[国语配音/中文字幕].Urban.Games.2014.1080p.HDR.WEB-DL.H265.AAC 1.61GB』来源于互联网机器人自动抓取,非本站原创。 浮游电影网不对本文拥有版权,如有侵犯,请联系邮箱:fuyouu#yandex.com[#换成@]投诉。我们会在15个工作日内删除。 但烦请转载时请标明出处:“本文转载于『浮游电影网』,原文地址:https://www.fuyouu.com/14602.html

评论吧骚年!

发表你的见解   

昵称*

E-mail*(建议输入,以便收到博主回复的提示邮件)

验证码*

您可以使用eMule或eMule Mod(Windows)、aMule(Win、Linux、Mac)等软件下载eD2k链接。。
eMule收藏集(.emulecollection)文件是您选中的所有链接的列表文件。eMule可以直接下载它们。
按住SHIFT键选择可以选中多个选择框。
可用文件名和大小选择器来选择文件。
文件名选择器帮您根据文件名称或后缀来选择文件。不分大小写。
符号使用:
和:空格( )、+
不包含:-
或:|
转义:一对英文引号("");
匹配开头:^
匹配结尾:$
例如:
选中所有名称中包含有“eMule”或“0.49c”字眼,但不包含有“exe”字眼的:emule|0.49c -exe
选中所有名称的开头是“eMule”,结尾是“0.49c”的:^emule 0.49c$
选中所有名称中带有“eMule 0.49c”的(必须是“eMule 0.49c”,中间没有别的字符,不能是“eMule fake 0.49c”),需要转义:"emule 0.49c"
大小选择器帮您根据文件大小选择文件。