当前位置: 首页 >> 国产电影 >> 露水红颜[国语配音/中文字幕].For.Love.or.Money.2014.1080p.WEB-DL.H264.AAC 1.35GB >> 正文

露水红颜[国语配音/中文字幕].For.Love.or.Money.2014.1080p.WEB-DL.H264.AAC 1.35GB

2021年09月27日 15:32:12     电影发布:来源于网络     电影分类:国产电影     评论(0)    

露水红颜[国语配音/中文字幕].For.Love.or.Money.2014.1080p.WEB DL.H264.AAC 1.35GB 爱情片 国产电影  第1张

◎译 名 露水红颜 / 红颜露水 / For Love or Money / Difficult Love

◎年 代 2014

◎产 地 中国大陆

◎类 别 爱情

◎语 言 汉语普通话 / 英语

◎上映日期 2014-11-07(中国大陆)

◎IMDb链接 https://www.imdb.com/title/tt4311466/

◎豆瓣评分 4.8/10 (48347人评价)

◎豆瓣链接 https://movie.douban.com/subject/25831308/

◎片 长 98分钟

◎导 演 高希希 Xixi Gao (id:1310336)

◎编 剧 王九九 Jiujiu Wang (id:1344471)

郭梦昕 Mengxin Guo (id:1344472)

王宛平 Wanping Wang (id:1318763)

张小娴 Siu-Han Cheung (id:1378179)

◎演 员 刘亦菲 Yifei Liu (id:1049732)

郑智薰 Rain (id:1035671)

王学兵 Xuebing Wang (id:1274550)

陈冲 Joan Chen (id:1044964)

邵峰 Feng Shao (id:1317030)

唐嫣 Yan Tang (id:1274479)

安志杰 Andy On (id:1045364)

孙海英 Haiying Sun (id:1274237)

林依轮 Allen Lin (id:1313324)

董勇 Yong Dong (id:1274637)

韩张 Zhang Han (id:1326228)

李雨轩 Yanxi Li (id:1324096)

穆晓穗 Xiaosui Mu (id:1403485)

林泓 Laster Lin (id:1330792)

◎标 签 刘亦菲 / 爱情 / 红颜露水 / 小说改编 / 郑智薰 / 2014 / 中国电影 / 中国

◎简 介

表面看来,刑露(刘亦菲 饰)是一个普通的女孩,享受着普通人的快乐与幸福,也有着普通人的悲伤与烦恼。然而,实际上,刑露拥有着一个特殊的身份——没落贵族的后代。一次偶然中,刑露在一间咖啡店里偶遇了名为徐承勋(郑智薰 饰)的画家,尽管徐承勋身无分文穷困潦倒,但他的善良和才情还是很快吸引了刑露的注意。

陷入了爱情的刑露第一次知道了什么是真正的快乐,然而,随着时间的推移,同徐承勋距离越来越近的刑露开始对恋人的身份产生了怀疑。这个男人无牵无挂的仿佛从来没有过去,而他们之间的相遇也或许并不是巧合。面对种种疑问,刑露能够把握自己的未来吗?

  1. ##### MediaInfo ######

  2. General

  3. Unique ID : 7770581814966141127407776480599023515 (0x5D88F43463D1C34238E3C2690991F9B)

  4. Complete name : [email protected]v

  5. Format : Matroska

  6. Format version : Version 4

  7. File size : 1.35 GiB

  8. Duration : 1 h 39 min

  9. Overall bit rate : 1 941 kb/s

  10. Encoded date : UTC 2021-09-25 07:32:51

  11. Writing application : mkvmerge v49.0.0 ('Sick Of Losing Soulmates') 64-bit

  12. Writing library : libebml v1.4.0 + libmatroska v1.6.1


  13. Video

  14. ID : 1

  15. Format : AVC

  16. Format/Info : Advanced Video Codec

  17. Format profile : [email protected]

  18. Format settings : CABAC / 3 Ref Frames

  19. Format settings, CABAC : Yes

  20. Format settings, Reference frames : 3 frames

  21. Codec ID : V_MPEG4/ISO/AVC

  22. Duration : 1 h 39 min

  23. Bit rate : 1 815 kb/s

  24. Width : 1 920 pixels

  25. Height : 816 pixels

  26. Display aspect ratio : 2.35:1

  27. Frame rate mode : Constant

  28. Frame rate : 24.000 FPS

  29. Color space : YUV

  30. Chroma subsampling : 4:2:0

  31. Bit depth : 8 bits

  32. Scan type : Progressive

  33. Bits/(Pixel*Frame) : 0.048

  34. Stream size : 1.26 GiB (93%)

  35. Default : Yes

  36. Forced : No

  37. Color range : Limited

  38. Color primaries : BT.709

  39. Transfer characteristics : BT.709

  40. Matrix coefficients : BT.709


  41. Audio

  42. ID : 2

  43. Format : AAC LC

  44. Format/Info : Advanced Audio Codec Low Complexity

  45. Codec ID : A_AAC-2

  46. Duration : 1 h 39 min

  47. Bit rate : 124 kb/s

  48. Channel(s) : 2 channels

  49. Channel layout : L R

  50. Sampling rate : 44.1 kHz

  51. Frame rate : 43.066 FPS (1024 SPF)

  52. Compression mode : Lossy

  53. Delay relative to video : -83 ms

  54. Stream size : 88.3 MiB (6%)

  55. Language : Chinese

  56. Default : Yes

  57. Forced : No


文件下载


除非特别注明,本文『露水红颜[国语配音/中文字幕].For.Love.or.Money.2014.1080p.WEB-DL.H264.AAC 1.35GB』来源于互联网机器人自动抓取,非本站原创。 浮游电影网不对本文拥有版权,如有侵犯,请联系邮箱:fuyouu#yandex.com[#换成@]投诉。我们会在15个工作日内删除。 但烦请转载时请标明出处:“本文转载于『浮游电影网』,原文地址:https://www.fuyouu.com/14601.html

评论吧骚年!

发表你的见解   

昵称*

E-mail*(建议输入,以便收到博主回复的提示邮件)

验证码*

您可以使用eMule或eMule Mod(Windows)、aMule(Win、Linux、Mac)等软件下载eD2k链接。。
eMule收藏集(.emulecollection)文件是您选中的所有链接的列表文件。eMule可以直接下载它们。
按住SHIFT键选择可以选中多个选择框。
可用文件名和大小选择器来选择文件。
文件名选择器帮您根据文件名称或后缀来选择文件。不分大小写。
符号使用:
和:空格( )、+
不包含:-
或:|
转义:一对英文引号("");
匹配开头:^
匹配结尾:$
例如:
选中所有名称中包含有“eMule”或“0.49c”字眼,但不包含有“exe”字眼的:emule|0.49c -exe
选中所有名称的开头是“eMule”,结尾是“0.49c”的:^emule 0.49c$
选中所有名称中带有“eMule 0.49c”的(必须是“eMule 0.49c”,中间没有别的字符,不能是“eMule fake 0.49c”),需要转义:"emule 0.49c"
大小选择器帮您根据文件大小选择文件。