当前位置: 首页 >> 港台电影 >> 黄飞鸿之三:狮王争霸[国语配音/中文字幕].Once.Upon.a.Time.in.China.III.1992.HDTV.1080i.H.264.DD.2.0.&.MPEG.Audio.2.0 7. >> 正文

黄飞鸿之三:狮王争霸[国语配音/中文字幕].Once.Upon.a.Time.in.China.III.1992.HDTV.1080i.H.264.DD.2.0.&.MPEG.Audio.2.0 7.

2021年09月27日 15:30:59     电影发布:来源于网络     电影分类:港台电影     评论(0)    

黄飞鸿之三:狮王争霸[国语配音/中文字幕].Once.Upon.a.Time.in.China.III.1992.HDTV.1080i.H.264.DD.2.0.&.MPEG.Audio.2.0 7. 武侠片 古装片 动作片 剧情片 港台电影  第1张

◎译 名 黄飞鸿之三:狮王争霸 / 黄飞鸿3 / 黄飞鸿之狮王争霸 / Once Upon a Time in China III

◎片 名 黃飛鴻之三獅王爭霸

◎年 代 1992

◎产 地 中国香港 / 中国大陆

◎类 别 剧情 / 动作 / 武侠 / 古装

◎语 言 粤语 / 汉语普通话

◎上映日期 1992-12-24(中国台湾) / 1993-02-11(中国香港)

◎IMDb链接 https://www.imdb.com/title/tt0108592/

◎豆瓣评分 8.1/10 (124240人评价)

◎豆瓣链接 https://movie.douban.com/subject/1292704/

◎片 长 112分钟

◎导 演 徐克 Hark Tsui (id:1007152)

◎编 剧 徐克 Hark Tsui (id:1007152)

张炭 Cheung Tan (id:1313457)

陈天璇 Tin-suen Chan (id:1322467)

◎演 员 李连杰 Jet Li (id:1025146)

关之琳 Rosamund Kwan (id:1028064)

莫少聪 Siu Chung Mok (id:1037846)

熊欣欣 Xinxin Xiong (id:1033090)

刘洵 Shun Lau (id:1274304)

庄域飞 John Wakefield (id:1167299)

葛存壮 Cunzhuang Ge (id:1275415)

张春仲 Chunzhong Zhang (id:1318275)

孟瑾 Jin Meng (id:1370652)

李炳雷 Binglei Li (id:1357568)

廖静妮 Jingni Liao (id:1322549)

赵箭 Jian Zhao (id:1322468)

成志谷 Zhigu Cheng (id:1412715)

麦子善 Marco Mak (id:1280638)

吴思远 See-Yuen Ng (id:1293125)

胡伟立 Wai Lap Wu (id:1275249)

刘伟强 Andrew Lau (id:1106979)

刘春福 Chunfu Liu (id:1401958)

麦子善 Marco Mak (id:1280638)

林安儿 Angie Lam (id:1038152)

叶锦添 Timmy Yip (id:1301493)

来启箴 Qizhen Lai (id:1289264)

元彬 Bun Yuen (id:1278657)

邹文怀 Raymond Chow (id:1016883)

黄志明 Wong Chi-Ming (id:1398895)

◎标 签 李连杰 / 动作 / 徐克 / 香港 / 武侠 / 香港电影 / 黄飞鸿 / 1993

◎简 介

晚清末年,大清帝国摇摇欲倒。面对外敌来袭,慈禧太后鼓励民间习武抗敌。李鸿章为了逢迎太后,举办起一年一届的“狮王争霸”大赛。“狮王争霸”其实就是各们各派舞起狮子头,以武力争夺锦标。

“狮王争霸”的消息一传出,各大门派纷纷摩拳擦掌,暗中招兵买马。一时,京城门派冲突四起。黄飞鸿(李连杰 饰)上书李鸿章欲取消“狮王争霸”,无奈李鸿章没有理会。无奈之下,黄飞鸿只好亲自参加“狮王争霸”,阻止各门派的自相残杀。

“狮王争霸”终于开锣了!这天校场上尘土飞扬,各门派自造的形象各异、杀伤力极强的“狮子头”粉墨登场。黄飞鸿亲自率领鬼脚七等徒弟也赶到了……

◎获奖情况 (共2项)

第13届香港电影金像奖 (1994)

最佳剪接(提名)

最佳动作设计(提名)

└──元彬 (id:1278657)

  1. ##### MediaInfo ######

  2. General

  3. ID : 1024 (0x400)

  4. Complete name : Once Upon a Time in China III 1992 HDTV 1080i H.264 DD 2.0 & MPEG Audio [email protected]

  5. Format : MPEG-TS

  6. File size : 7.05 GiB

  7. Duration : 2 h 3 min

  8. Overall bit rate mode : Variable

  9. Overall bit rate : 8 198 kb/s


  10. Video

  11. ID : 105 (0x69)

  12. Menu ID : 2405 (0x965)

  13. Format : AVC

  14. Format/Info : Advanced Video Codec

  15. Format profile : [email protected]

  16. Format settings : CABAC / 4 Ref Frames

  17. Format settings, CABAC : Yes

  18. Format settings, Reference frames : 4 frames

  19. Codec ID : 27

  20. Duration : 2 h 3 min

  21. Bit rate : 7 341 kb/s

  22. Width : 1 920 pixels

  23. Height : 1 080 pixels

  24. Display aspect ratio : 16:9

  25. Frame rate : 25.000 FPS

  26. Color space : YUV

  27. Chroma subsampling : 4:2:0

  28. Bit depth : 8 bits

  29. Scan type : MBAFF

  30. Scan type, store method : Interleaved fields

  31. Scan order : Top Field First

  32. Bits/(Pixel*Frame) : 0.142

  33. Stream size : 6.31 GiB (90%)


  34. Audio #1

  35. ID : 221 (0xDD)

  36. Menu ID : 2405 (0x965)

  37. Format : AC-3

  38. Format/Info : Audio Coding 3

  39. Commercial name : Dolby Digital

  40. Codec ID : 6

  41. Duration : 2 h 3 min

  42. Bit rate mode : Constant

  43. Bit rate : 256 kb/s

  44. Channel(s) : 2 channels

  45. Channel layout : L R

  46. Sampling rate : 48.0 kHz

  47. Frame rate : 31.250 FPS (1536 SPF)

  48. Compression mode : Lossy

  49. Delay relative to video : -18 ms

  50. Stream size : 225 MiB (3%)

  51. Language : English

  52. Service kind : Complete Main


  53. Audio #2

  54. ID : 222 (0xDE)

  55. Menu ID : 2405 (0x965)

  56. Format : MPEG Audio

  57. Format version : Version 1

  58. Format profile : Layer 2

  59. Format settings : Joint stereo / Intensity Stereo + MS Stereo

  60. Codec ID : 3

  61. Duration : 2 h 3 min

  62. Bit rate mode : Constant

  63. Bit rate : 192 kb/s

  64. Channel(s) : 2 channels

  65. Sampling rate : 48.0 kHz

  66. Frame rate : 41.667 FPS (1152 SPF)

  67. Compression mode : Lossy

  68. Delay relative to video : -24 ms

  69. Stream size : 169 MiB (2%)

  70. Language : English


  71. Menu

  72. ID : 55 (0x37)

  73. Menu ID : 2405 (0x965)

  74. Duration : 2 h 3 min

  75. List : 105 (0x69) (AVC) / 221 (0xDD) (AC-3, English) / 222 (0xDE) (MPEG Audio, English)

  76. Language : / English / English


文件下载


除非特别注明,本文『黄飞鸿之三:狮王争霸[国语配音/中文字幕].Once.Upon.a.Time.in.China.III.1992.HDTV.1080i.H.264.DD.2.0.&.MPEG.Audio.2.0 7.』来源于互联网机器人自动抓取,非本站原创。 浮游电影网不对本文拥有版权,如有侵犯,请联系邮箱:fuyouu#yandex.com[#换成@]投诉。我们会在15个工作日内删除。 但烦请转载时请标明出处:“本文转载于『浮游电影网』,原文地址:https://www.fuyouu.com/14600.html

评论吧骚年!

发表你的见解   

昵称*

E-mail*(建议输入,以便收到博主回复的提示邮件)

验证码*

您可以使用eMule或eMule Mod(Windows)、aMule(Win、Linux、Mac)等软件下载eD2k链接。。
eMule收藏集(.emulecollection)文件是您选中的所有链接的列表文件。eMule可以直接下载它们。
按住SHIFT键选择可以选中多个选择框。
可用文件名和大小选择器来选择文件。
文件名选择器帮您根据文件名称或后缀来选择文件。不分大小写。
符号使用:
和:空格( )、+
不包含:-
或:|
转义:一对英文引号("");
匹配开头:^
匹配结尾:$
例如:
选中所有名称中包含有“eMule”或“0.49c”字眼,但不包含有“exe”字眼的:emule|0.49c -exe
选中所有名称的开头是“eMule”,结尾是“0.49c”的:^emule 0.49c$
选中所有名称中带有“eMule 0.49c”的(必须是“eMule 0.49c”,中间没有别的字符,不能是“eMule fake 0.49c”),需要转义:"emule 0.49c"
大小选择器帮您根据文件大小选择文件。