当前位置: 首页 >> 欧美电影 >> 你不是诺米[简繁字幕].Showgirls.1995.BluRay.1080p.DTS-HD.MA.5.1.x265.10bit 10.74GB >> 正文

你不是诺米[简繁字幕].Showgirls.1995.BluRay.1080p.DTS-HD.MA.5.1.x265.10bit 10.74GB

2021年09月27日 15:29:05     电影发布:来源于网络     电影分类:欧美电影     评论(0)    

你不是诺米[简繁字幕].Showgirls.1995.BluRay.1080p.DTS HD.MA.5.1.x265.10bit 10.74GB 纪录片 欧美电影  第1张

◎译 名 你不是诺米

◎片 名 You Don't Nomi

◎年 代 2019

◎产 地 美国

◎类 别 纪录片

◎语 言 英语

◎上映日期 2019-04-27(翠贝卡电影节) / 2020-06-09(美国网络)

◎IMDb链接 https://www.imdb.com/title/tt10011412/

◎豆瓣链接 https://movie.douban.com/subject/33433245/

◎片 长 92分钟

◎演 员 伊丽莎白·伯克利 Elizabeth Berkley (id:1022585)

凯尔·麦克拉克伦 Kyle MacLachlan (id:1031874)

保罗·范霍文 Paul Verhoeven (id:1055953)

◎标 签 纪录片 / 2019 / 美国 / 紀錄片 / 美國 / Paul_Verhoeven / 2020年所看影视 / 2010s

◎简 介

Released in 1995, Paul Verhoeven's Showgirls was met by critics and audiences with near universal derision. You Don't Nomi traces the film's redemptive journey from notorious flop to cult classic, and maybe even masterpiece.

  1. ##### MediaInfo ######

  2. General

  3. Unique ID : 84267682975305154815493343832456259456 (0x3F655D8AC3B1427717076A64CA4B6780)

  4. Complete name : [email protected]Q.COM.mkv

  5. Format : Matroska

  6. Format version : Version 4

  7. File size : 10.7 GiB

  8. Duration : 2 h 11 min

  9. Overall bit rate mode : Variable

  10. Overall bit rate : 11.7 Mb/s

  11. Encoded date : UTC 2021-09-25 17:11:13

  12. Writing application : mkvmerge v60.0.0 ('Are We Copies?') 64-bit

  13. Writing library : libebml v1.4.2 + libmatroska v1.6.4


  14. Video

  15. ID : 1

  16. Format : HEVC

  17. Format/Info : High Efficiency Video Coding

  18. Format profile : Main [email protected]@Main

  19. Codec ID : V_MPEGH/ISO/HEVC

  20. Duration : 2 h 11 min

  21. Bit rate : 8 162 kb/s

  22. Width : 1 920 pixels

  23. Height : 818 pixels

  24. Display aspect ratio : 2.35:1

  25. Frame rate mode : Constant

  26. Frame rate : 23.976 (24000/1001/53354) FPS

  27. Color space : YUV

  28. Chroma subsampling : 4:2:0

  29. Bit depth : 10 bits

  30. Bits/(Pixel*Frame) : 0.217

  31. Stream size : 7.47 GiB (70%)

  32. Writing library : x265 3.5+11-c8905a745:[Windows][MSVC 1929][64 bit] 10bit

  33. Encoding settings : cpuid=533541111039 / frame-threads=4 / numa-pools=16 / wpp / no-pmode / pme / no-psnr / no-ssim / log-level=2 / input-csp=1 / input-res=1920x818 / interlace=0 / total-frames=0 / level-idc=0 / high-tier=1 / uhd-bd=0 / ref=6 / no-allow-non-conformance / repeat-headers / annexb / no-aud / no-eob / no-eos / no-hrd / info / hash=0 / no-temporal-layers / no-open-gop / min-keyint=23 / keyint=250 / gop-lookahead=0 / bframes=8 / b-adapt=2 / b-pyramid / bframe-bias=0 / rc-lookahead=57 / lookahead-slices=0 / NTMzNTQ=uuDQuD2mJt9fsCf / scenecut=40 / no-hist-scenecut / radl=0 / no-splice / no-intra-refresh / ctu=64 / min-cu-size=8 / rect / amp / max-tu-size=32 / tu-inter-depth=3 / tu-intra-depth=3 / limit-tu=0 / rdoq-level=2 / dynamic-rd=0.00 / no-ssim-rd / signhide / no-tskip / nr-intra=0 / nr-inter=0 / no-constrained-intra / no-strong-intra-smoothing / max-merge=5 / limit-refs=0 / no-limit-modes / me=2 / subme=7 / merange=57 / temporal-mvp / no-frame-dup / no-hme / weightp / weightb / no-analyze-src-pics / deblock=0:0 / sao / no-sao-non-deblock / rd=4 / selective-sao=4 / no-early-skip / rskip / no-fast-intra / no-tskip-fast / no-cu-lossless / b-intra / no-splitrd-skip / rdpenalty=0 / psy-rd=2.00 / psy-rdoq=1.00 / no-rd-refine / no-lossless / cbqpoffs=0 / crqpoffs=0 / rc=crf / crf=16.0 / qcomp=0.60 / qpstep=4 / stats-write=0 / stats-read=0 / ipratio=1.40 / pbratio=1.30 / aq-mode=3 / aq-strength=1.00 / cutree / zone-count=0 / no-strict-cbr / qg-size=32 / no-rc-grain / qpmax=69 / qpmin=0 / no-const-vbv / sar=0 / overscan=0 / videoformat=5 / range=0 / colorprim=2 / transfer=2 / colormatrix=2 / chromaloc=0 / display-window=0 / cll=0,0 / min-luma=0 / max-luma=1023 / log2-max-poc-lsb=8 / vui-timing-info / vui-hrd-info / slices=1 / no-opt-qp-pps / no-opt-ref-list-length-pps / no-multi-pass-opt-rps / scenecut-bias=0.05 / hist-threshold=0.03 / no-opt-cu-delta-qp / aq-motion / no-hdr10 / no-hdr10-opt / no-dhdr10-opt / no-idr-recovery-sei / analysis-reuse-level=0 / analysis-save-reuse-level=0 / analysis-load-reuse-level=0 / scale-factor=0 / refine-intra=0 / refine-inter=0 / refine-mv=1 / refine-ctu-distortion=0 / no-limit-sao / ctu-info=0 / no-lowpass-dct / refine-analysis-type=0 / copy-pic=1 / max-ausize-factor=1.0 / no-dynamic-refine / no-single-sei / no-hevc-aq / no-svt / no-field / qp-adaptation-range=1.00 / scenecut-aware-qp=0conformance-window-offsets / right=0 / bottom=0 / NTMzNTQ= / decoder-max-rate=0 / no-vbv-live-multi-pass

  34. Default : Yes

  35. Forced : No


  36. Audio

  37. ID : 2

  38. Format : DTS XLL

  39. Format/Info : Digital Theater Systems

  40. Commercial name : DTS-HD Master Audio

  41. Codec ID : A_DTS

  42. Duration : 2 h 11 min

  43. Bit rate mode : Variable

  44. Bit rate : 3 506 kb/s

  45. Channel(s) : 6 channels

  46. Channel layout : C L R Ls Rs LFE

  47. Sampling rate : 48.0 kHz

  48. Frame rate : 93.750 FPS (512 SPF)

  49. Bit depth : 24 bits

  50. Compression mode : Lossless

  51. Stream size : 3.21 GiB (30%)

  52. Language : English

  53. Default : Yes

  54. Forced : No


  55. Text #1

  56. ID : 3

  57. Format : PGS

  58. Muxing mode : zlib

  59. Codec ID : S_HDMV/PGS

  60. Codec ID/Info : Picture based subtitle format used on BDs/HD-DVDs

  61. Duration : 2 h 10 min

  62. Bit rate : 21.7 kb/s

  63. Count of elements : 3366

  64. Stream size : 20.3 MiB (0%)

  65. Title : 英文字幕

  66. Language : English

  67. Default : Yes

  68. Forced : No


  69. Text #2

  70. ID : 4

  71. Format : PGS

  72. Muxing mode : zlib

  73. Codec ID : S_HDMV/PGS

  74. Codec ID/Info : Picture based subtitle format used on BDs/HD-DVDs

  75. Duration : 2 h 3 min

  76. Bit rate : 26.6 kb/s

  77. Count of elements : 3815

  78. Stream size : 23.5 MiB (0%)

  79. Title : 简中字幕

  80. Language : Chinese

  81. Default : Yes

  82. Forced : No


  83. Text #3

  84. ID : 5

  85. Format : PGS

  86. Muxing mode : zlib

  87. Codec ID : S_HDMV/PGS

  88. Codec ID/Info : Picture based subtitle format used on BDs/HD-DVDs

  89. Duration : 2 h 3 min

  90. Bit rate : 26.6 kb/s

  91. Count of elements : 3815

  92. Stream size : 23.5 MiB (0%)

  93. Title : 繁中字幕

  94. Language : Chinese

  95. Default : Yes

  96. Forced : No


  97. Text #4

  98. ID : 6

  99. Format : PGS

  100. Muxing mode : zlib

  101. Codec ID : S_HDMV/PGS

  102. Codec ID/Info : Picture based subtitle format used on BDs/HD-DVDs

  103. Duration : 2 h 3 min

  104. Bit rate : 43.3 kb/s

  105. Count of elements : 3815

  106. Stream size : 38.3 MiB (0%)

  107. Title : 简英双语

  108. Language : Chinese

  109. Default : Yes

  110. Forced : No


  111. Menu

  112. 00:00:00.000 : :第 01 章

  113. 00:00:23.690 : :第 02 章

  114. 00:10:26.626 : :第 03 章

  115. 00:22:34.770 : :第 04 章

  116. 00:32:39.457 : :第 05 章

  117. 00:43:45.873 : :第 06 章

  118. 00:54:06.910 : :第 07 章

  119. 01:05:46.693 : :第 08 章

  120. 01:17:44.285 : :第 09 章

  121. 01:28:05.822 : :第 10 章

  122. 01:38:35.743 : :第 11 章

  123. 01:51:39.818 : :第 12 章

  124. 02:03:24.355 : :第 13 章



文件下载


除非特别注明,本文『你不是诺米[简繁字幕].Showgirls.1995.BluRay.1080p.DTS-HD.MA.5.1.x265.10bit 10.74GB』来源于互联网机器人自动抓取,非本站原创。 浮游电影网不对本文拥有版权,如有侵犯,请联系邮箱:fuyouu#yandex.com[#换成@]投诉。我们会在15个工作日内删除。 但烦请转载时请标明出处:“本文转载于『浮游电影网』,原文地址:https://www.fuyouu.com/14599.html

评论吧骚年!

发表你的见解   

昵称*

E-mail*(建议输入,以便收到博主回复的提示邮件)

验证码*

您可以使用eMule或eMule Mod(Windows)、aMule(Win、Linux、Mac)等软件下载eD2k链接。。
eMule收藏集(.emulecollection)文件是您选中的所有链接的列表文件。eMule可以直接下载它们。
按住SHIFT键选择可以选中多个选择框。
可用文件名和大小选择器来选择文件。
文件名选择器帮您根据文件名称或后缀来选择文件。不分大小写。
符号使用:
和:空格( )、+
不包含:-
或:|
转义:一对英文引号("");
匹配开头:^
匹配结尾:$
例如:
选中所有名称中包含有“eMule”或“0.49c”字眼,但不包含有“exe”字眼的:emule|0.49c -exe
选中所有名称的开头是“eMule”,结尾是“0.49c”的:^emule 0.49c$
选中所有名称中带有“eMule 0.49c”的(必须是“eMule 0.49c”,中间没有别的字符,不能是“eMule fake 0.49c”),需要转义:"emule 0.49c"
大小选择器帮您根据文件大小选择文件。