当前位置: 首页 >> 港台电影 >> 可爱的你[国粤语配音/中文字幕].Little.Big.Master.2015.1080p.BluRay.x265.10bit.DTS.2Audio 5.35GB >> 正文

可爱的你[国粤语配音/中文字幕].Little.Big.Master.2015.1080p.BluRay.x265.10bit.DTS.2Audio 5.35GB

2021年09月27日 15:25:59     电影发布:来源于网络     电影分类:港台电影     评论(0)    

可爱的你[国粤语配音/中文字幕].Little.Big.Master.2015.1080p.BluRay.x265.10bit.DTS.2Audio 5.35GB 剧情片 港台电影  第1张

◎译 名 可爱的你 / 五个小孩的校长 / 5个小孩的校长 / Little Big Master

◎片 名 五傂『⒌男iL

◎年 代 2015

◎产 地 中国香港 / 中国大陆

◎类 别 剧情

◎语 言 汉语普通话 / 粤语

◎上映日期 2015-03-20(中国大陆) / 2015-03-19(中国香港) / 2015-04-02(中国台湾)

◎IMDb链接 https://www.imdb.com/title/tt4319698/

◎豆瓣评分 7.9/10 (42130人评价)

◎豆瓣链接 https://movie.douban.com/subject/25870236/

◎片 长 113分钟

◎导 演 关信辉 Adrian Kwan (id:1283395)

◎编 剧 关信辉 Adrian Kwan (id:1283395)

张佩琼 Hannah Chang Pui King (id:1345920)

◎演 员 杨千嬅 Miriam Yeung (id:1173971)

古天乐 Louis Koo (id:1027577)

王诗雅 Keira Wang (id:1348221)

傅舜盈 Shun ying Fu (id:1348219)

陈丽儿 Khan Nayab (id:1410058)

李咏珊 Zaha Fathima (id:1348218)

何涴潆 Ho Yuen Ying Winnie (id:1348220)

吴耀汉 Richard Ng (id:1037408)

吴浣仪 Yuen Yee Ng (id:1324439)

姜皓文 Philip Keung Ho-Man (id:1317884)

刘玉翠 Rain Lau (id:1274573)

狄哲龙 Dhillon Harjit Singh (id:1348215)

利绵娜 Asnani Mena (id:1348216)

冯淬帆 Stanley Fung (id:1274503)

马浴柯 Marc Ma (id:1327671)

火火 Fire Lee Ka Wing (id:1322557)

黄文慧 Man-Wai Wong (id:1330485)

森美 Sammy Leung (id:1038992)

欧锦棠 Stephen Au (id:1275712)

冯素波 So-Po Fung (id:1324285)

欧倩怡 Cindy Au (id:1039282)

秦煌 Wong Chun (id:1274570)

余达志 Tat-chi Yu (id:1359517)

狼森 Philippe Joly (id:1347734)

李泳珊 Rain Lee (id:1433226)

詹朗林 Jackie Jim (id:1428452)

李敏 Ranya Lee (id:1355516)

张康达 Hong Tat Cheung (id:1395690)

曾咏汶 Wing Tsang (id:1335012)

陈木胜 Benny Chan (id:1274293)

周绰华 Alvin Chow (id:1425958)

潘耀明 Anthony Pun (id:1307639)

彭正熙 Curran Pang (id:1305790)

陈嘉仪 Furze Chan (id:1346425)

◎标 签 温情 / 香港 / 教育 / 剧情 / 感人 / 2015 / 文艺片 / 老师

◎简 介

吕慧红(杨千嬅 饰)曾经是名校校长,和丈夫谢永东(古天乐 饰)结婚多年,感情依然恩爱如初,幸福美满的两人即将迎来他们的十周年结婚纪念日。吕慧红早早离开了工作岗位,为了半年之后的环球旅行做起了准备,内心里满怀着期待和盼望。

一次偶然中,吕慧红得知一所名叫元田的幼儿园濒临倒闭的边缘,而园中仅有小雪(何涴潆 饰)、珠女(王诗雅 饰)、嘉嘉(傅舜盈 饰)、凯蒂(李咏珊 饰)和珍妮(陈丽儿 饰)五个天真单纯的孩子,如果幼儿园倒闭,那么这五个孩子将要面对无学可上的糟糕现实。冲动之下,吕慧红决定成为元田幼儿园的园长,哪知道想要胜任这一职位,需要付出那么多的努力和那么大的代价。

◎获奖情况 (共5项)

第35届香港电影金像奖 (2016)

最佳电影(提名)

最佳导演(提名)

└──关信辉 (id:1283395)

最佳编剧(提名)

最佳女主角(提名)

└──杨千嬅 (id:1173971)

最佳女配角(提名)

└──吴浣仪 (id:1324439)

  1. ##### MediaInfo ######

  2. General

  3. Unique ID : 299676687805954402101768662077704528325 (0xE173A17375B7CD2B82025E78319861C5)

  4. Complete name : [email protected]BBQDDQ.COM.mkv

  5. Format : Matroska

  6. Format version : Version 4

  7. File size : 5.35 GiB

  8. Duration : 1 h 52 min

  9. Overall bit rate : 6 811 kb/s

  10. Movie name : Little Big Master 2015

  11. Encoded date : UTC 2021-09-26 01:44:02

  12. Writing application : mkvmerge v61.0.0 ('So') 64-bit

  13. Writing library : libebml v1.4.2 + libmatroska v1.6.4

  14. Cover : Yes

  15. Attachments : cover.jpg


  16. Video

  17. ID : 1

  18. Format : HEVC

  19. Format/Info : High Efficiency Video Coding

  20. Format profile : Main [email protected]@Main

  21. Codec ID : V_MPEGH/ISO/HEVC

  22. Duration : 1 h 52 min

  23. Bit rate : 5 551 kb/s

  24. Width : 1 920 pixels

  25. Height : 816 pixels

  26. Display aspect ratio : 2.35:1

  27. Frame rate mode : Constant

  28. Frame rate : 24.000 FPS

  29. Color space : YUV

  30. Chroma subsampling : 4:2:0

  31. Bit depth : 10 bits

  32. Bits/(Pixel*Frame) : 0.148

  33. Stream size : 4.36 GiB (82%)

  34. Writing library : x265 3.5+2-g2b25c9ba0+45:[Windows][GCC 10.2.0][64 bit] Yuuki 10bit+8bit+12bit

  35. Encoding settings : rc=crf / crf=17.0000 / qcomp=0.60 / qpstep=4 / stats-write=0 / stats-read=0 / no-lossless / no-cu-lossless / aq-mode=3 / aq-strength=0.90 / cbqpoffs=0 / crqpoffs=0 / ipratio=1.40 / pbratio=1.30 / psy-rd=2.00 / psy-rdoq=0.00 / deblock=0:0 / ref=6 / limit-refs=1 / no-limit-modes / bframes=8 / b-adapt=2 / bframe-bias=0 / b-pyramid / b-intra / weightp / weightb / min-keyint=24 / max-keyint=240 / rc-lookahead=24 / gop-lookahead=0 / NTMzNTQ=uuDQuD2mJt9fsCf / scenecut=40 / hist-scenecut=0 / radl=0 / max-cu-size=64 / min-cu-size=8 / me=3 / subme=7 / merange=48 / rdoq-level=0 / rd=4 / rdpenalty=0 / dynamic-rd=0.00 / no-rd-refine / ----- / cutree / sao / no-rect / no-amp / no-open-gop / wpp / no-pmode / no-pme / no-psnr / no-ssim / nr-intra=0 / nr-inter=0 / no-constrained-intra / no-strong-intra-smoothing / max-tu-size=32 / tu-inter-depth=1 / tu-intra-depth=1 / limit-tu=0 / qg-size=32 / qpmax=69 / qpmin=0 / ----- / cpuid=533541111039 / frame-threads=4 / numa-pools=+ / log-level=2 / input-csp=1 / input-res=1920x816 / interlace=0 / level-idc=0 / high-tier=1 / uhd-bd=0 / no-allow-non-conformance / repeat-headers / aud / no-hrd / info / hash=0 / no-temporal-layers / lookahead-slices=0 / no-splice / no-intra-refresh / no-ssim-rd / signhide / no-tskip / max-merge=3 / temporal-mvp / no-frame-dup / no-hme / no-analyze-src-pics / no-sao-non-deblock / selective-sao=4 / early-skip / rskip / no-fast-intra / no-tskip-fast / no-splitrd-skip / zone-count=0 / no-strict-cbr / no-rc-grain / no-const-vbv / sar=0 / overscan=0 / videoformat=5 / range=0 / colorprim=2 / transfer=2 / colormatrix=2 / chromaloc=0 / display-window=0 / cll=0,0 / min-luma=0 / max-luma=1023 / log2-max-poc-lsb=8 / vui-timing-info / vui-hrd-info / slices=1 / no-opt-qp-pps / no-opt-ref-list-length-pps / no-multi-pass-opt-rps / scenecut-bias=0.05 / hist-threshold=0.03 / no-opt-cu-delta-qp / no-aq-motion / no-hdr10 / no-hdr10-opt / no-dhdr10-opt / no-idr-recovery-sei / analysis-reuse-level=0 / analysis-save-reuse-level=0 / analysis-load-reuse-level=0 / scale-factor=0 / refine-intra=0 / refine-inter=0 / refine-mv=1 / refine-ctu-distortion=0 / no-limit-sao / ctu-info=0 / no-lowpass-dct / refine-analysis-type=0 / copy-pic=1 / max-ausize-factor=1.0 / no-dynamic-refine / no-single-sei / no-hevc-aq / no-svt / no-field / qp-adaptation-range=1.00 / scenecut-aware-qp=0conformance-window-offsets / right=0 / bottom=0 / NTMzNTQ= / decoder-max-rate=0 / no-vbv-live-multi-pass

  36. Default : Yes

  37. Forced : No


  38. Audio #1

  39. ID : 2

  40. ID in the original source medium : 4352 (0x1100)

  41. Format : DTS

  42. Format/Info : Digital Theater Systems

  43. Codec ID : A_DTS

  44. Duration : 1 h 52 min

  45. Bit rate mode : Constant

  46. Bit rate : 768 kb/s

  47. Channel(s) : 6 channels

  48. Channel layout : C L R Ls Rs LFE

  49. Sampling rate : 48.0 kHz

  50. Frame rate : 93.750 FPS (512 SPF)

  51. Bit depth : 16 bits

  52. Compression mode : Lossy

  53. Stream size : 618 MiB (11%)

  54. Title : Cantonese

  55. Language : Chinese

  56. Default : Yes

  57. Forced : No

  58. Original source medium : Blu-ray


  59. Audio #2

  60. ID : 3

  61. ID in the original source medium : 4354 (0x1102)

  62. Format : AC-3

  63. Format/Info : Audio Coding 3

  64. Commercial name : Dolby Digital

  65. Codec ID : A_AC3

  66. Duration : 1 h 52 min

  67. Bit rate mode : Constant

  68. Bit rate : 448 kb/s

  69. Channel(s) : 6 channels

  70. Channel layout : L R C LFE Ls Rs

  71. Sampling rate : 48.0 kHz

  72. Frame rate : 31.250 FPS (1536 SPF)

  73. Compression mode : Lossy

  74. Stream size : 360 MiB (7%)

  75. Title : Mandarin

  76. Language : Chinese

  77. Service kind : Complete Main

  78. Default : Yes

  79. Forced : No

  80. Original source medium : Blu-ray


  81. Text #1

  82. ID : 4

  83. ID in the original source medium : 4609 (0x1201)

  84. Format : PGS

  85. Muxing mode : zlib

  86. Codec ID : S_HDMV/PGS

  87. Codec ID/Info : Picture based subtitle format used on BDs/HD-DVDs

  88. Duration : 1 h 46 min

  89. Bit rate : 37.4 kb/s

  90. Count of elements : 1692

  91. Stream size : 28.6 MiB (1%)

  92. Title : chs

  93. Language : Chinese

  94. Default : No

  95. Forced : No

  96. Original source medium : Blu-ray


  97. Text #2

  98. ID : 5

  99. ID in the original source medium : 4608 (0x1200)

  100. Format : PGS

  101. Muxing mode : zlib

  102. Codec ID : S_HDMV/PGS

  103. Codec ID/Info : Picture based subtitle format used on BDs/HD-DVDs

  104. Duration : 1 h 46 min

  105. Bit rate : 39.0 kb/s

  106. Count of elements : 1692

  107. Stream size : 29.8 MiB (1%)

  108. Title : cht

  109. Language : Chinese

  110. Default : No

  111. Forced : No

  112. Original source medium : Blu-ray


  113. Text #3

  114. ID : 6

  115. ID in the original source medium : 4610 (0x1202)

  116. Format : PGS

  117. Muxing mode : zlib

  118. Codec ID : S_HDMV/PGS

  119. Codec ID/Info : Picture based subtitle format used on BDs/HD-DVDs

  120. Duration : 1 h 46 min

  121. Bit rate : 32.7 kb/s

  122. Count of elements : 1692

  123. Stream size : 25.0 MiB (0%)

  124. Language : English

  125. Default : No

  126. Forced : No

  127. Original source medium : Blu-ray


  128. Menu

  129. 00:00:00.000 : Chapter 01

  130. 00:09:33.083 : Chapter 02

  131. 00:19:25.375 : Chapter 03

  132. 00:28:20.000 : Chapter 04

  133. 00:35:56.750 : Chapter 05

  134. 00:47:56.750 : Chapter 06

  135. 00:56:20.750 : Chapter 07

  136. 01:05:37.166 : Chapter 08

  137. 01:15:18.000 : Chapter 09

  138. 01:25:38.541 : Chapter 10

  139. 01:33:59.500 : Chapter 11

  140. 01:43:06.416 : Chapter 12


文件下载


除非特别注明,本文『可爱的你[国粤语配音/中文字幕].Little.Big.Master.2015.1080p.BluRay.x265.10bit.DTS.2Audio 5.35GB』来源于互联网机器人自动抓取,非本站原创。 浮游电影网不对本文拥有版权,如有侵犯,请联系邮箱:fuyouu#yandex.com[#换成@]投诉。我们会在15个工作日内删除。 但烦请转载时请标明出处:“本文转载于『浮游电影网』,原文地址:https://www.fuyouu.com/14597.html

评论吧骚年!

发表你的见解   

昵称*

E-mail*(建议输入,以便收到博主回复的提示邮件)

验证码*

您可以使用eMule或eMule Mod(Windows)、aMule(Win、Linux、Mac)等软件下载eD2k链接。。
eMule收藏集(.emulecollection)文件是您选中的所有链接的列表文件。eMule可以直接下载它们。
按住SHIFT键选择可以选中多个选择框。
可用文件名和大小选择器来选择文件。
文件名选择器帮您根据文件名称或后缀来选择文件。不分大小写。
符号使用:
和:空格( )、+
不包含:-
或:|
转义:一对英文引号("");
匹配开头:^
匹配结尾:$
例如:
选中所有名称中包含有“eMule”或“0.49c”字眼,但不包含有“exe”字眼的:emule|0.49c -exe
选中所有名称的开头是“eMule”,结尾是“0.49c”的:^emule 0.49c$
选中所有名称中带有“eMule 0.49c”的(必须是“eMule 0.49c”,中间没有别的字符,不能是“eMule fake 0.49c”),需要转义:"emule 0.49c"
大小选择器帮您根据文件大小选择文件。