当前位置: 首页 >> 国产电影 >> 丢心[国语配音/中文字幕].Lost.Conscience.2018.2160p.WEB-DL.H265.DD2.0 21.63GB >> 正文

丢心[国语配音/中文字幕].Lost.Conscience.2018.2160p.WEB-DL.H265.DD2.0 21.63GB

2021年09月27日 15:21:08     电影发布:来源于网络     电影分类:国产电影     评论(0)    

丢心[国语配音/中文字幕].Lost.Conscience.2018.2160p.WEB DL.H265.DD2.0 21.63GB 剧情片 国产电影  第1张

◎译 名 丢心 / Lost Conscience

◎年 代 2018

◎产 地 中国大陆

◎类 别 剧情

◎语 言 汉语普通话

◎上映日期 2018-01-12(中国大陆)

◎IMDb链接 https://www.imdb.com/title/tt8971520/

◎豆瓣链接 https://movie.douban.com/subject/27017988/

◎片 长 104分钟

◎导 演 汪小平 Xiaoping Wang (id:1362150)

崔潇 Xiao Cui (id:1385565)

◎编 剧 汪小平 Xiaoping Wang (id:1362150)

崔潇 Xiao Cui (id:1385565)

◎演 员 陈逸恒 Yiheng Chen (id:1318303)

黄品沅 Ruomeng Huang (id:1326050)

周浩东 Haodong Zhou (id:1316046)

王奕盛 Yisheng Wang (id:1325431)

顾婷萱 Tingxuan Gu (id:1385566)

石黎明 Liming Shi (id:1385567)

李超 Chao Li (id:1346438)

李通 Tong Li (id:1385568)

兰颖 Ying Lan (id:1320036)

朱鑫 Xin Zhu (id:1385569)

◎标 签 剧情 / 中国 / 2018 / 国产 / 兰州 / 甘肃 / 中国大陆 / 救赎

◎简 介

乡镇开锁小伙寒风和发小军哥背井离乡去城里打工挣钱,本以为这是新的人生,却没想到是自认最亲的哥哥所设计的圈套。淳朴农村小伙的善良与重情重义被利用,内心在良知面前摇摆不定,逐渐踏上了几乎无可回头之路,在迷失良心之际,亲眼看到所爱之人被伤害才顿感觉悟,通过艰难抉择最终迷途知返,完成了自我救赎。

  1. ##### MediaInfo ######

  2. General

  3. Complete name : 丢心[email protected]p4

  4. Format : MPEG-4

  5. Format profile : Base Media

  6. Codec ID : isom (isom/iso2/mp41)

  7. File size : 21.6 GiB

  8. Duration : 1 h 43 min

  9. Overall bit rate : 30.0 Mb/s

  10. Writing application : OurTV Multimedia Platform


  11. Video

  12. ID : 1

  13. Format : HEVC

  14. Format/Info : High Efficiency Video Coding

  15. Format profile : [email protected]@High

  16. Codec ID : hev1

  17. Codec ID/Info : High Efficiency Video Coding

  18. Duration : 1 h 43 min

  19. Bit rate : 29.6 Mb/s

  20. Width : 3 840 pixels

  21. Height : 2 160 pixels

  22. Display aspect ratio : 16:9

  23. Frame rate mode : Constant

  24. Frame rate : 25.000 FPS

  25. Color space : YUV

  26. Chroma subsampling : 4:2:0

  27. Bit depth : 8 bits

  28. Bits/(Pixel*Frame) : 0.143

  29. Stream size : 21.3 GiB (99%)

  30. Writing library : PONTUS-series

  31. Color range : Limited

  32. Codec configuration box : hvcC


  33. Audio

  34. ID : 2

  35. Format : AC-3

  36. Format/Info : Audio Coding 3

  37. Commercial name : Dolby Digital

  38. Codec ID : ac-3

  39. Duration : 1 h 43 min

  40. Bit rate mode : Constant

  41. Bit rate : 384 kb/s

  42. Channel(s) : 2 channels

  43. Channel layout : L R

  44. Sampling rate : 48.0 kHz

  45. Frame rate : 31.250 FPS (1536 SPF)

  46. Compression mode : Lossy

  47. Stream size : 284 MiB (1%)

  48. Service kind : Complete Main

  49. Default : Yes

  50. Alternate group : 1


文件下载


除非特别注明,本文『丢心[国语配音/中文字幕].Lost.Conscience.2018.2160p.WEB-DL.H265.DD2.0 21.63GB』来源于互联网机器人自动抓取,非本站原创。 浮游电影网不对本文拥有版权,如有侵犯,请联系邮箱:fuyouu#yandex.com[#换成@]投诉。我们会在15个工作日内删除。 但烦请转载时请标明出处:“本文转载于『浮游电影网』,原文地址:https://www.fuyouu.com/14593.html

评论吧骚年!

发表你的见解   

昵称*

E-mail*(建议输入,以便收到博主回复的提示邮件)

验证码*

您可以使用eMule或eMule Mod(Windows)、aMule(Win、Linux、Mac)等软件下载eD2k链接。。
eMule收藏集(.emulecollection)文件是您选中的所有链接的列表文件。eMule可以直接下载它们。
按住SHIFT键选择可以选中多个选择框。
可用文件名和大小选择器来选择文件。
文件名选择器帮您根据文件名称或后缀来选择文件。不分大小写。
符号使用:
和:空格( )、+
不包含:-
或:|
转义:一对英文引号("");
匹配开头:^
匹配结尾:$
例如:
选中所有名称中包含有“eMule”或“0.49c”字眼,但不包含有“exe”字眼的:emule|0.49c -exe
选中所有名称的开头是“eMule”,结尾是“0.49c”的:^emule 0.49c$
选中所有名称中带有“eMule 0.49c”的(必须是“eMule 0.49c”,中间没有别的字符,不能是“eMule fake 0.49c”),需要转义:"emule 0.49c"
大小选择器帮您根据文件大小选择文件。