当前位置: 首页 >> 欧美电影 >> 天才瑞普利[中文字幕].The.Talented.Mr.Ripley.1999.1080p.BluRay.x265.10bit.DTS 7.70GB >> 正文

天才瑞普利[中文字幕].The.Talented.Mr.Ripley.1999.1080p.BluRay.x265.10bit.DTS 7.70GB

2021年09月27日 15:18:58     电影发布:来源于网络     电影分类:欧美电影     评论(0)    

天才瑞普利[中文字幕].The.Talented.Mr.Ripley.1999.1080p.BluRay.x265.10bit.DTS 7.70GB 犯罪片 惊悚片 剧情片 欧美电影  第1张

◎译 名 天才瑞普利 / 心计(港) / 天才雷普利(台) / 天才里普雷先生 / 美男心计 / 天才先生瑞普利

◎片 名 The Talented Mr. Ripley

◎年 代 1999

◎产 地 美国

◎类 别 剧情 / 惊悚 / 犯罪

◎语 言 英语 / 意大利语

◎上映日期 1999-12-25(美国)

◎IMDb链接 https://www.imdb.com/title/tt0134119/

◎豆瓣评分 8.2/10 (135793人评价)

◎豆瓣链接 https://movie.douban.com/subject/1295045/

◎片 长 139分钟

◎导 演 安东尼·明格拉 Anthony Minghella (id:1047995)

◎编 剧 派翠西亚·海史密斯 Patricia Highsmith (id:1014301)

安东尼·明格拉 Anthony Minghella (id:1047995)

◎演 员 马特·达蒙 Matt Damon (id:1054443)

格温妮斯·帕特洛 Gwyneth Paltrow (id:1018985)

裘德·洛 Jude Law (id:1010510)

凯特·布兰切特 Cate Blanchett (id:1054441)

菲利普·塞默·霍夫曼 Philip Seymour Hoffman (id:1054394)

杰克·达文波特 Jack Davenport (id:1031865)

詹姆斯·瑞布霍恩 James Rebhorn (id:1049801)

赛尔乔·鲁比尼 Sergio Rubini (id:1037164)

菲利普·贝克·霍尔 Philip Baker Hall (id:1049779)

西利亚·维斯顿 Celia Weston (id:1161747)

Fiorello Fiorello (id:1082159)

斯特凡妮娅·罗卡 Stefania Rocca (id:1048276)

Ivano Marescotti Ivano Marescotti (id:1121103)

安娜·隆姬 Anna Longhi (id:1123011)

丽莎·艾科恩 Lisa Eichhorn (id:1007104)

格雷琴· 易葛夫 Gretchen Egolf (id:1347839)

安东尼奥·普雷斯特 Antonio Prester (id:1128312)

Massimo Reale Massimo Reale (id:1145469)

Caterina Deregibus Caterina Deregibus (id:1088156)

吉安弗兰科·巴拉 Gianfranco Barra (id:1065944)

雷纳托·斯卡帕 Renato Scarpa (id:1138312)

迪尔德丽·罗夫乔 Deirdre Lovejoy (id:1125327)

布赖恩·塔伦蒂诺 Brian Tarantina (id:1158948)

Bernardo Sassetti Bernardo Sassetti (id:1010934)

Byron Wallen Byron Wallen (id:1161959)

贝佩·费奥雷罗 Beppe Fiorello (id:1032904)

亚历山德拉万齐 Alessandra Vanzi (id:1038925)

保罗·卡拉布雷西 Paolo Calabresi (id:1350420)

Manuel Ruffini Manuel Ruffini (id:1146572)

切萨雷·克雷莫尼尼 Cesare Cremonini (id:1075056)

多米尼克·福穆萨 Dominic Fumusa (id:1321526)

西德尼·波拉克 Sydney Pollack (id:1010608)

Steve E. Andrews Steve E. Andrews (id:1277257)

莉迪亚·迪恩·皮尔彻 Lydia Dean Pilcher (id:1282112)

威廉·霍尔伯格 William Horberg (id:1286904)

汤姆·斯滕伯格 Tom Sternberg (id:1298395)

盖布瑞·雅德 Gabriel Yared (id:1028122)

约翰·希尔 John Seale (id:1055367)

班诺特·德姆 Beno?t Delhomme (id:1282193)

沃尔特·默奇 Walter Murch (id:1009621)

大卫·鲁宾 David Rubin (id:1296270)

罗伊·沃克 Roy Walker (id:1300318)

斯蒂法诺玛丽亚奥托拉尼 Stefano Maria Ortolani (id:1293660)

John Fenner John Fenner (id:1283565)

安·罗斯 Ann Roth (id:1041745)

西安·格里格 Sian Grigg (id:1285472)

波莉·恩肖 Polly Earnshaw (id:1282946)

凯·乔治奥 Kay Georgiou (id:1284721)

法布里齐奥·斯福尔扎 Fabrizio Sforza (id:1297279)

乔治奥·格雷戈里尼 Giorgio Gregorini (id:1285419)

蒂娜·恩肖 Tina Earnshaw (id:1282939)

Massimiliano Duranti Massimiliano Duranti (id:1303363)

Emma Schofield Emma Schofield (id:1276375)

Steve E. Andrews Steve E. Andrews (id:1277257)

艾米·林恩 Amy Lynn (id:1290539)

Val Wardlaw Val Wardlaw (id:1300431)

Vít Komrzy Vít Komrzy (id:1288857)

Nick Drew Nick Drew (id:1282721)

◎标 签 犯罪 / 美国 / 悬疑 / MattDamon / 剧情 / JudeLaw / 天才雷普利 / 美国电影

◎简 介

年轻有钱又置身于意大利的艳阳下,这是汤姆·瑞普利(马特·达蒙 Matt Damon 饰)所渴望的生活,却是迪基·格林利(裘德·洛 Jude Law 饰)早已拥有的东西。

瑞普利是个出身平凡,生活也毫无值得炫耀的年轻人,他受到一个富商之托,到意大利去游说他号荡不羁的儿子迪 基,重回他的家乡美国。但是当瑞普利一到那里,就深深地被迪基的生活形态所迷惑:美丽的别墅、高级浮华的度假饭店、一掷千金的奢靡生活,以及他美丽温柔的女友,都令他羡慕不已。

由于瑞普利一心觊觎迪基的生活,最后这样的欲望竟扩张成想要将迪基取而代之,他缜密的心思不仅令人咋舌,而冷静的犯罪手法更教人措手不及。就在他陶醉于亲手打造的美梦中时,瑞普利因为一次意外的巧合害他露出了马脚,于是引起警方的注意并展开调查……

本片改编自女作家派翠西亚·海史密斯写于1955年的同名小说,法国导演雷内·克莱芒曾于...

◎获奖情况 (共18项)

第72届奥斯卡金像奖 (2000)

最佳男配角(提名)

└──裘德·洛 (id:1010510)

最佳改编剧本(提名)

└──安东尼·明格拉 (id:1047995)

最佳艺术指导(提名)

最佳服装设计(提名)

最佳原创配乐(提名)

└──盖布瑞·雅德 (id:1028122)

第50届柏林国际电影节 (2000)

金熊奖(提名)

└──安东尼·明格拉 (id:1047995)

第57届金球奖 (2000)

电影类 最佳剧情片(提名)

电影类 最佳导演(提名)

└──安东尼·明格拉 (id:1047995)

电影类 剧情片最佳男主角(提名)

└──马特·达蒙 (id:1054443)

电影类 最佳男配角(提名)

└──裘德·洛 (id:1010510)

电影类 最佳原创配乐(提名)

└──盖布瑞·雅德 (id:1028122)

第53届英国电影学院奖 (2000)

电影奖 最佳影片(提名)

电影奖 最佳导演(提名)

└──安东尼·明格拉 (id:1047995)

电影奖 最佳男配角

└──裘德·洛 (id:1010510)

电影奖 最佳女配角(提名)

└──凯特·布兰切特 (id:1054441)

电影奖 最佳改编剧本(提名)

└──安东尼·明格拉 (id:1047995)

电影奖 最佳摄影(提名)

└──约翰·希尔 (id:1055367)

电影奖 最佳原创音乐(提名)

└──盖布瑞·雅德 (id:1028122)

  1. ##### MediaInfo ######

  2. General

  3. Unique ID : 199260379761946103663603388660966363485 (0x95E82738DBEB7F31C5C1913CBEC2115D)

  4. Complete name : [email protected]QDDQ.COM.mkv

  5. Format : Matroska

  6. Format version : Version 4

  7. File size : 7.70 GiB

  8. Duration : 2 h 19 min

  9. Overall bit rate : 7 922 kb/s

  10. Encoded date : UTC 2021-09-25 15:17:53

  11. Writing application : mkvmerge v61.0.0 ('So') 64-bit

  12. Writing library : libebml v1.4.2 + libmatroska v1.6.4


  13. Video

  14. ID : 1

  15. Format : HEVC

  16. Format/Info : High Efficiency Video Coding

  17. Format profile : Main [email protected]@Main

  18. Codec ID : V_MPEGH/ISO/HEVC

  19. Duration : 2 h 19 min

  20. Bit rate : 6 327 kb/s

  21. Width : 1 920 pixels

  22. Height : 1 032 pixels

  23. Display aspect ratio : 1.85:1

  24. Frame rate mode : Constant

  25. Frame rate : 23.976 (24000/1001/53354) FPS

  26. Color space : YUV

  27. Chroma subsampling : 4:2:0

  28. Bit depth : 10 bits

  29. Bits/(Pixel*Frame) : 0.133

  30. Stream size : 6.15 GiB (80%)

  31. Writing library : x265 3.5+2-g2b25c9ba0+45:[Windows][GCC 10.2.0][64 bit] Yuuki 10bit+8bit+12bit

  32. Encoding settings : rc=crf / crf=21.0000 / qcomp=0.60 / qpstep=4 / stats-write=0 / stats-read=0 / no-lossless / no-cu-lossless / aq-mode=3 / aq-strength=0.90 / cbqpoffs=0 / crqpoffs=0 / ipratio=1.40 / pbratio=1.30 / psy-rd=2.00 / psy-rdoq=0.00 / deblock=0:0 / ref=6 / limit-refs=1 / no-limit-modes / bframes=8 / b-adapt=2 / bframe-bias=0 / b-pyramid / b-intra / weightp / weightb / min-keyint=24 / max-keyint=240 / rc-lookahead=24 / gop-lookahead=0 / NTMzNTQ=uuDQuD2mJt9fsCf / scenecut=40 / hist-scenecut=0 / radl=0 / max-cu-size=64 / min-cu-size=8 / me=3 / subme=7 / merange=48 / rdoq-level=0 / rd=4 / rdpenalty=0 / dynamic-rd=0.00 / no-rd-refine / ----- / cutree / sao / no-rect / no-amp / no-open-gop / wpp / no-pmode / no-pme / no-psnr / no-ssim / nr-intra=0 / nr-inter=0 / no-constrained-intra / no-strong-intra-smoothing / max-tu-size=32 / tu-inter-depth=1 / tu-intra-depth=1 / limit-tu=0 / qg-size=32 / qpmax=69 / qpmin=0 / ----- / cpuid=533541111039 / frame-threads=4 / numa-pools=+ / log-level=2 / input-csp=1 / input-res=1920x1032 / interlace=0 / level-idc=0 / high-tier=1 / uhd-bd=0 / no-allow-non-conformance / no-repeat-headers / aud / no-hrd / info / hash=0 / no-temporal-layers / lookahead-slices=0 / no-splice / no-intra-refresh / no-ssim-rd / signhide / no-tskip / max-merge=3 / temporal-mvp / no-frame-dup / no-hme / no-analyze-src-pics / no-sao-non-deblock / selective-sao=4 / early-skip / rskip / no-fast-intra / no-tskip-fast / no-splitrd-skip / zone-count=0 / no-strict-cbr / no-rc-grain / no-const-vbv / sar=0 / overscan=0 / videoformat=5 / range=0 / colorprim=2 / transfer=2 / colormatrix=2 / chromaloc=0 / display-window=0 / cll=0,0 / min-luma=0 / max-luma=1023 / log2-max-poc-lsb=8 / vui-timing-info / vui-hrd-info / slices=1 / no-opt-qp-pps / no-opt-ref-list-length-pps / no-multi-pass-opt-rps / scenecut-bias=0.05 / hist-threshold=0.03 / no-opt-cu-delta-qp / no-aq-motion / no-hdr10 / no-hdr10-opt / no-dhdr10-opt / no-idr-recovery-sei / analysis-reuse-level=0 / analysis-save-reuse-level=0 / analysis-load-reuse-level=0 / scale-factor=0 / refine-intra=0 / refine-inter=0 / refine-mv=1 / refine-ctu-distortion=0 / no-limit-sao / ctu-info=0 / no-lowpass-dct / refine-analysis-type=0 / copy-pic=1 / max-ausize-factor=1.0 / no-dynamic-refine / no-single-sei / no-hevc-aq / no-svt / no-field / qp-adaptation-range=1.00 / scenecut-aware-qp=0conformance-window-offsets / right=0 / bottom=0 / NTMzNTQ= / decoder-max-rate=0 / no-vbv-live-multi-pass

  33. Default : Yes

  34. Forced : No


  35. Audio

  36. ID : 2

  37. ID in the original source medium : 4352 (0x1100)

  38. Format : DTS

  39. Format/Info : Digital Theater Systems

  40. Codec ID : A_DTS

  41. Duration : 2 h 19 min

  42. Bit rate mode : Constant

  43. Bit rate : 1 509 kb/s

  44. Channel(s) : 6 channels

  45. Channel layout : C L R Ls Rs LFE

  46. Sampling rate : 48.0 kHz

  47. Frame rate : 93.750 FPS (512 SPF)

  48. Bit depth : 16 bits

  49. Compression mode : Lossy

  50. Stream size : 1.47 GiB (19%)

  51. Language : English

  52. Default : Yes

  53. Forced : No

  54. Original source medium : Blu-ray


  55. Text #1

  56. ID : 3

  57. ID in the original source medium : 4613 (0x1205)

  58. Format : PGS

  59. Muxing mode : zlib

  60. Codec ID : S_HDMV/PGS

  61. Codec ID/Info : Picture based subtitle format used on BDs/HD-DVDs

  62. Duration : 2 h 13 min

  63. Bit rate : 48.8 kb/s

  64. Count of elements : 3118

  65. Stream size : 46.7 MiB (1%)

  66. Title : chs&eng

  67. Language : Chinese

  68. Default : Yes

  69. Forced : No

  70. Original source medium : Blu-ray


  71. Text #2

  72. ID : 4

  73. ID in the original source medium : 4614 (0x1206)

  74. Format : PGS

  75. Muxing mode : zlib

  76. Codec ID : S_HDMV/PGS

  77. Codec ID/Info : Picture based subtitle format used on BDs/HD-DVDs

  78. Duration : 2 h 13 min

  79. Bit rate : 49.3 kb/s

  80. Count of elements : 3118

  81. Stream size : 47.1 MiB (1%)

  82. Title : cht&eng

  83. Language : Chinese

  84. Default : No

  85. Forced : No

  86. Original source medium : Blu-ray


  87. Text #3

  88. ID : 5

  89. ID in the original source medium : 4615 (0x1207)

  90. Format : PGS

  91. Muxing mode : zlib

  92. Codec ID : S_HDMV/PGS

  93. Codec ID/Info : Picture based subtitle format used on BDs/HD-DVDs

  94. Duration : 2 h 13 min

  95. Bit rate : 29.7 kb/s

  96. Count of elements : 3118

  97. Stream size : 28.4 MiB (0%)

  98. Title : chs

  99. Language : Chinese

  100. Default : No

  101. Forced : No

  102. Original source medium : Blu-ray


  103. Text #4

  104. ID : 6

  105. ID in the original source medium : 4616 (0x1208)

  106. Format : PGS

  107. Muxing mode : zlib

  108. Codec ID : S_HDMV/PGS

  109. Codec ID/Info : Picture based subtitle format used on BDs/HD-DVDs

  110. Duration : 2 h 13 min

  111. Bit rate : 30.1 kb/s

  112. Count of elements : 3118

  113. Stream size : 28.8 MiB (0%)

  114. Title : cht

  115. Language : Chinese

  116. Default : No

  117. Forced : No

  118. Original source medium : Blu-ray


  119. Text #5

  120. ID : 7

  121. ID in the original source medium : 4608 (0x1200)

  122. Format : PGS

  123. Muxing mode : zlib

  124. Codec ID : S_HDMV/PGS

  125. Codec ID/Info : Picture based subtitle format used on BDs/HD-DVDs

  126. Duration : 2 h 18 min

  127. Bit rate : 33.8 kb/s

  128. Count of elements : 3547

  129. Stream size : 33.4 MiB (0%)

  130. Title : eng

  131. Language : English

  132. Default : No

  133. Forced : No

  134. Original source medium : Blu-ray


  135. Menu

  136. 00:00:00.000 : 第 01 章

  137. 00:11:20.888 : 第 02 章

  138. 00:14:22.194 : 第 03 章

  139. 00:18:21.433 : 第 04 章

  140. 00:32:59.394 : 第 05 章

  141. 00:42:50.693 : 第 06 章

  142. 00:49:13.867 : 第 07 章

  143. 00:58:51.903 : 第 08 章

  144. 01:03:45.655 : 第 09 章

  145. 01:19:52.120 : 第 10 章

  146. 01:27:47.095 : 第 11 章

  147. 01:38:10.801 : 第 12 章

  148. 01:53:24.839 : 第 13 章

  149. 01:59:29.370 : 第 14 章

  150. 02:05:49.917 : 第 15 章


文件下载


除非特别注明,本文『天才瑞普利[中文字幕].The.Talented.Mr.Ripley.1999.1080p.BluRay.x265.10bit.DTS 7.70GB』来源于互联网机器人自动抓取,非本站原创。 浮游电影网不对本文拥有版权,如有侵犯,请联系邮箱:fuyouu#yandex.com[#换成@]投诉。我们会在15个工作日内删除。 但烦请转载时请标明出处:“本文转载于『浮游电影网』,原文地址:https://www.fuyouu.com/14591.html

评论吧骚年!

发表你的见解   

昵称*

E-mail*(建议输入,以便收到博主回复的提示邮件)

验证码*

您可以使用eMule或eMule Mod(Windows)、aMule(Win、Linux、Mac)等软件下载eD2k链接。。
eMule收藏集(.emulecollection)文件是您选中的所有链接的列表文件。eMule可以直接下载它们。
按住SHIFT键选择可以选中多个选择框。
可用文件名和大小选择器来选择文件。
文件名选择器帮您根据文件名称或后缀来选择文件。不分大小写。
符号使用:
和:空格( )、+
不包含:-
或:|
转义:一对英文引号("");
匹配开头:^
匹配结尾:$
例如:
选中所有名称中包含有“eMule”或“0.49c”字眼,但不包含有“exe”字眼的:emule|0.49c -exe
选中所有名称的开头是“eMule”,结尾是“0.49c”的:^emule 0.49c$
选中所有名称中带有“eMule 0.49c”的(必须是“eMule 0.49c”,中间没有别的字符,不能是“eMule fake 0.49c”),需要转义:"emule 0.49c"
大小选择器帮您根据文件大小选择文件。