当前位置: 首页 >> 港台电影 >> 至尊无上II之永霸天下[国粤语配音/中文字幕].Casino.Raiders.II.1991.1080p.BluRay.x265.10bit.FLAC.2.0.2Audio 6.88GB >> 正文

至尊无上II之永霸天下[国粤语配音/中文字幕].Casino.Raiders.II.1991.1080p.BluRay.x265.10bit.FLAC.2.0.2Audio 6.88GB

2021年09月27日 15:17:59     电影发布:来源于网络     电影分类:港台电影     评论(0)    

至尊无上II之永霸天下[国粤语配音/中文字幕].Casino.Raiders.II.1991.1080p.BluRay.x265.10bit.FLAC.2.0.2Audio 6.88GB 犯罪片 动作片 剧情片 港台电影  第1张

◎译 名 至尊无上II之永霸天下 / 至尊无上2 / 兄弟情深 / Casino Raiders II

◎片 名 至尊無上II之永霸天下

◎年 代 1991

◎产 地 中国香港

◎类 别 剧情 / 动作 / 犯罪

◎语 言 粤语

◎上映日期 1991-06-13(中国香港)

◎IMDb链接 https://www.imdb.com/title/tt0108654/

◎豆瓣评分 7.3/10 (9434人评价)

◎豆瓣链接 https://movie.douban.com/subject/1300264/

◎片 长 91分钟

◎导 演 杜琪峰 Johnnie To (id:1160186)

◎编 剧 曾瑾昌 Kan-Cheung Tsang (id:1299569)

◎演 员 刘德华 Andy Lau (id:1054424)

吴倩莲 Chien-lien Wu (id:1166703)

王杰 Dave Wong (id:1029137)

黄秋生 Anthony Wong Chau-Sang (id:1050076)

陈法蓉 Monica Chan (id:1042518)

王霄 Kelvin Wong (id:1314653)

刘兆铭 Lau Siu Ming (id:1313719)

刘江 Kong Lau (id:1274572)

李兆基 Siu-Kei Lee (id:1275475)

林富伟 Fu-wai Lam (id:1433957)

陈卓欣 Chan Cheuk Yan (id:1349518)

刘洵 Shun Lau (id:1274304)

黄一飞 Yut Fei Wong (id:1301215)

吴浣仪 Yuen Yee Ng (id:1324439)

成运安 Shing Gwan-On (id:1407239)

黄新 Sun Wong (id:1342013)

田丰 Feng Tien (id:1019621)

杨群 Peter Yang Kwan (id:1317338)

向华胜 Jimmy Heung (id:1327878)

胡伟立 Wai Lap Wu (id:1275249)

黄永恒 Wing-Hung Wong (id:1300411)

程小东 Siu-Tung Ching (id:1280664)

◎标 签 刘德华 / 香港 / 杜琪峰 / 王杰 / 赌片 / 吴倩莲 / 动作 / 1991

◎简 介

江湖中传说,有两块赌神玉牌,拥有者可以凭借玉牌召唤赌神帮助,逢赌必胜。八年前,范叔与徒弟詹永飞(王霄 饰)、鸡翼(刘德华 饰)、“亚洲第一快手”仇杰(王杰 饰)与人对赌,不料詹永飞背叛,导致范叔输掉了安身立命的豪华赌轮,并因高空坠落而下身瘫痪,仇杰也遭陷害入狱。八年后,范叔与鸡翼、小倩(吴倩莲 饰)在一艘小木船中开设赌局度日,每日为参加亚洲赌赛勤勉筹备,詹永飞获悉范叔拥有赌神玉牌,带人逼索使范叔身亡。出狱归来的仇杰面对范叔之死,只想过平常人生活意欲退出江湖,岂料詹永飞反复纠缠,设计先后令仇杰断臂、鸡翼目盲,忍无可忍的情况下,仇杰与鸡翼决定用赌来讨回公道……

◎获奖情况 (共1项)

第11届香港电影金像奖 (1992)

最佳原创电影歌曲(提名)

  1. ##### MediaInfo ######

  2. General

  3. Unique ID : 2647216001886995975431654477212301396 (0x1FDD5D362910FEC172A9A74AFAE3854)

  4. Complete name : Casin[email protected]BBQDDQ.COM.mkv

  5. Format : Matroska

  6. Format version : Version 4

  7. File size : 6.88 GiB

  8. Duration : 1 h 31 min

  9. Overall bit rate mode : Variable

  10. Overall bit rate : 10.8 Mb/s

  11. Encoded date : UTC 2021-09-25 13:13:05

  12. Writing application : mkvmerge v56.1.0 ('My Friend') 64-bit

  13. Writing library : libebml v1.4.2 + libmatroska v1.6.4


  14. Video

  15. ID : 1

  16. Format : HEVC

  17. Format/Info : High Efficiency Video Coding

  18. Format profile : Main [email protected]@Main

  19. Codec ID : V_MPEGH/ISO/HEVC

  20. Duration : 1 h 31 min

  21. Bit rate : 9 223 kb/s

  22. Width : 1 920 pixels

  23. Height : 1 076 pixels

  24. Display aspect ratio : 16:9

  25. Frame rate mode : Constant

  26. Frame rate : 24.000 FPS

  27. Color space : YUV

  28. Chroma subsampling : 4:2:0

  29. Bit depth : 10 bits

  30. Bits/(Pixel*Frame) : 0.186

  31. Stream size : 5.88 GiB (85%)

  32. Writing library : x265 3.5+2-g2b25c9ba0+45:[Windows][GCC 10.2.0][64 bit] Yuuki 10bit+8bit+12bit

  33. Encoding settings : rc=crf / crf=23.5000 / qcomp=0.70 / qpstep=4 / stats-write=0 / stats-read=0 / no-lossless / no-cu-lossless / aq-mode=3 / aq-strength=0.70 / cbqpoffs=0 / crqpoffs=0 / ipratio=1.40 / pbratio=1.30 / psy-rd=2.00 / psy-rdoq=0.00 / deblock=0:0 / ref=6 / limit-refs=1 / no-limit-modes / bframes=9 / b-adapt=2 / bframe-bias=0 / b-pyramid / b-intra / weightp / weightb / min-keyint=24 / max-keyint=240 / rc-lookahead=24 / gop-lookahead=0 / NTMzNTQ=uuDQuD2mJt9fsCf / scenecut=40 / hist-scenecut=0 / radl=0 / max-cu-size=64 / min-cu-size=8 / me=3 / subme=7 / merange=48 / rdoq-level=0 / rd=4 / rdpenalty=0 / dynamic-rd=0.00 / no-rd-refine / ----- / cutree / sao / no-rect / no-amp / no-open-gop / wpp / no-pmode / no-pme / no-psnr / no-ssim / nr-intra=0 / nr-inter=0 / no-constrained-intra / no-strong-intra-smoothing / max-tu-size=32 / tu-inter-depth=1 / tu-intra-depth=1 / limit-tu=0 / qg-size=32 / qpmax=69 / qpmin=0 / ----- / cpuid=533541111039 / frame-threads=4 / numa-pools=+ / log-level=2 / input-csp=1 / input-res=1920x1076 / interlace=0 / level-idc=0 / high-tier=1 / uhd-bd=0 / no-allow-non-conformance / no-repeat-headers / aud / no-hrd / info / hash=0 / no-temporal-layers / lookahead-slices=0 / no-splice / no-intra-refresh / no-ssim-rd / signhide / no-tskip / max-merge=3 / temporal-mvp / no-frame-dup / no-hme / no-analyze-src-pics / no-sao-non-deblock / selective-sao=4 / early-skip / rskip / no-fast-intra / no-tskip-fast / no-splitrd-skip / zone-count=0 / no-strict-cbr / no-rc-grain / no-const-vbv / sar=0 / overscan=0 / videoformat=5 / range=0 / colorprim=2 / transfer=2 / colormatrix=2 / chromaloc=0 / display-window=0 / cll=0,0 / min-luma=0 / max-luma=1023 / log2-max-poc-lsb=8 / vui-timing-info / vui-hrd-info / slices=1 / no-opt-qp-pps / no-opt-ref-list-length-pps / no-multi-pass-opt-rps / scenecut-bias=0.05 / hist-threshold=0.03 / no-opt-cu-delta-qp / no-aq-motion / no-hdr10 / no-hdr10-opt / no-dhdr10-opt / no-idr-recovery-sei / analysis-reuse-level=0 / analysis-save-reuse-level=0 / analysis-load-reuse-level=0 / scale-factor=0 / refine-intra=0 / refine-inter=0 / refine-mv=1 / refine-ctu-distortion=0 / no-limit-sao / ctu-info=0 / no-lowpass-dct / refine-analysis-type=0 / copy-pic=1 / max-ausize-factor=1.0 / no-dynamic-refine / no-single-sei / no-hevc-aq / no-svt / no-field / qp-adaptation-range=1.00 / scenecut-aware-qp=0conformance-window-offsets / right=0 / bottom=0 / NTMzNTQ= / decoder-max-rate=0 / no-vbv-live-multi-pass

  34. Default : Yes

  35. Forced : No


  36. Audio #1

  37. ID : 2

  38. Format : FLAC

  39. Format/Info : Free Lossless Audio Codec

  40. Codec ID : A_FLAC

  41. Duration : 1 h 31 min

  42. Bit rate mode : Variable

  43. Bit rate : 803 kb/s

  44. Channel(s) : 2 channels

  45. Channel layout : L R

  46. Sampling rate : 48.0 kHz

  47. Frame rate : 11.719 FPS (4096 SPF)

  48. Bit depth : 24 bits

  49. Compression mode : Lossless

  50. Stream size : 524 MiB (7%)

  51. Title : Cantonese

  52. Writing library : libFLAC 1.2.1 (UTC 2007-09-17)

  53. Language : Chinese

  54. Default : Yes

  55. Forced : No


  56. Audio #2

  57. ID : 3

  58. Format : FLAC

  59. Format/Info : Free Lossless Audio Codec

  60. Codec ID : A_FLAC

  61. Duration : 1 h 31 min

  62. Bit rate mode : Variable

  63. Bit rate : 741 kb/s

  64. Channel(s) : 2 channels

  65. Channel layout : L R

  66. Sampling rate : 48.0 kHz

  67. Frame rate : 11.719 FPS (4096 SPF)

  68. Bit depth : 24 bits

  69. Compression mode : Lossless

  70. Stream size : 483 MiB (7%)

  71. Title : Mandarin

  72. Writing library : libFLAC 1.2.1 (UTC 2007-09-17)

  73. Language : Chinese

  74. Default : No

  75. Forced : No


  76. Text #1

  77. ID : 4

  78. ID in the original source medium : 4609 (0x1201)

  79. Format : PGS

  80. Muxing mode : zlib

  81. Codec ID : S_HDMV/PGS

  82. Codec ID/Info : Picture based subtitle format used on BDs/HD-DVDs

  83. Duration : 1 h 28 min

  84. Bit rate : 25.6 kb/s

  85. Count of elements : 1495

  86. Stream size : 16.2 MiB (0%)

  87. Title : chs

  88. Language : Chinese

  89. Default : Yes

  90. Forced : No

  91. Original source medium : Blu-ray


  92. Text #2

  93. ID : 5

  94. ID in the original source medium : 4608 (0x1200)

  95. Format : PGS

  96. Muxing mode : zlib

  97. Codec ID : S_HDMV/PGS

  98. Codec ID/Info : Picture based subtitle format used on BDs/HD-DVDs

  99. Duration : 1 h 28 min

  100. Bit rate : 26.1 kb/s

  101. Count of elements : 1493

  102. Stream size : 16.5 MiB (0%)

  103. Title : cht

  104. Language : Chinese

  105. Default : No

  106. Forced : No

  107. Original source medium : Blu-ray


  108. Text #3

  109. ID : 6

  110. ID in the original source medium : 4610 (0x1202)

  111. Format : PGS

  112. Muxing mode : zlib

  113. Codec ID : S_HDMV/PGS

  114. Codec ID/Info : Picture based subtitle format used on BDs/HD-DVDs

  115. Duration : 1 h 28 min

  116. Bit rate : 25.6 kb/s

  117. Count of elements : 1493

  118. Stream size : 16.1 MiB (0%)

  119. Title : eng

  120. Language : English

  121. Default : No

  122. Forced : No

  123. Original source medium : Blu-ray


  124. Menu

  125. 00:00:00.000 : 第 01 章

  126. 00:09:09.708 : 第 02 章

  127. 00:16:24.333 : 第 03 章

  128. 00:23:10.958 : 第 04 章

  129. 00:29:16.041 : 第 05 章

  130. 00:38:14.250 : 第 06 章

  131. 00:47:10.458 : 第 07 章

  132. 00:53:28.875 : 第 08 章

  133. 01:01:22.166 : 第 09 章

  134. 01:05:58.375 : 第 10 章

  135. 01:15:33.833 : 第 11 章

  136. 01:22:02.166 : 第 12 章


文件下载


除非特别注明,本文『至尊无上II之永霸天下[国粤语配音/中文字幕].Casino.Raiders.II.1991.1080p.BluRay.x265.10bit.FLAC.2.0.2Audio 6.88GB』来源于互联网机器人自动抓取,非本站原创。 浮游电影网不对本文拥有版权,如有侵犯,请联系邮箱:fuyouu#yandex.com[#换成@]投诉。我们会在15个工作日内删除。 但烦请转载时请标明出处:“本文转载于『浮游电影网』,原文地址:https://www.fuyouu.com/14590.html

评论吧骚年!

发表你的见解   

昵称*

E-mail*(建议输入,以便收到博主回复的提示邮件)

验证码*

您可以使用eMule或eMule Mod(Windows)、aMule(Win、Linux、Mac)等软件下载eD2k链接。。
eMule收藏集(.emulecollection)文件是您选中的所有链接的列表文件。eMule可以直接下载它们。
按住SHIFT键选择可以选中多个选择框。
可用文件名和大小选择器来选择文件。
文件名选择器帮您根据文件名称或后缀来选择文件。不分大小写。
符号使用:
和:空格( )、+
不包含:-
或:|
转义:一对英文引号("");
匹配开头:^
匹配结尾:$
例如:
选中所有名称中包含有“eMule”或“0.49c”字眼,但不包含有“exe”字眼的:emule|0.49c -exe
选中所有名称的开头是“eMule”,结尾是“0.49c”的:^emule 0.49c$
选中所有名称中带有“eMule 0.49c”的(必须是“eMule 0.49c”,中间没有别的字符,不能是“eMule fake 0.49c”),需要转义:"emule 0.49c"
大小选择器帮您根据文件大小选择文件。