当前位置: 首页 >> 国产电影 >> 六弄咖啡馆[国语配音/中文字幕].At.Cafe.6.2016.1080p.BluRay.x265.10bit.DTS 4.00GB >> 正文

六弄咖啡馆[国语配音/中文字幕].At.Cafe.6.2016.1080p.BluRay.x265.10bit.DTS 4.00GB

2021年09月27日 15:12:24     电影发布:来源于网络     电影分类:国产电影     评论(0)    

六弄咖啡馆[国语配音/中文字幕].At.Cafe.6.2016.1080p.BluRay.x265.10bit.DTS 4.00GB 爱情片 剧情片 国产电影  第1张

◎译 名 六弄咖啡馆 / At Cafe 6

◎年 代 2016

◎产 地 中国大陆 / 中国台湾

◎类 别 剧情 / 爱情

◎语 言 汉语普通话

◎上映日期 2016-07-29(中国大陆) / 2016-07-15(中国台湾)

◎IMDb链接 https://www.imdb.com/title/tt5827496/

◎豆瓣评分 6.7/10 (41490人评价)

◎豆瓣链接 https://movie.douban.com/subject/26351867/

◎片 长 98分钟(中国大陆)

◎导 演 吴子云 Neal Wu (id:1349108)

◎编 剧 吴子云 Neal Wu (id:1349108)

郑源成 Yuancheng Zheng (id:1359028)

廖明毅 Ming I Liao (id:1359029)

何素芬 Sufen He (id:1359030)

◎演 员 董子健 Zijian Dong (id:1330472)

颜卓灵 Cherry Ngan (id:1318260)

林柏宏 Austin Lin (id:1275324)

欧阳妮妮 Nini Ouyang (id:1349107)

宋伊人 Ireine Song (id:1345741)

戴立忍 Leon Dai (id:1023718)

张榕容 Sandrine Pinna (id:1226703)

李程彬 Toby Lee (id:1349387)

范少勋 Fandy Fan (id:1389902)

宋柏纬 Edison Song (id:1370066)

江少仪 Michelle Chiang (id:1380684)

刘杰 Jie Liu (id:1274348)

赵毅 Yi Zhao (id:1391018)

李偲菘 Shih Shiong Lee (id:1440208)

刘又年 Younian Liu (id:1344641)

李昭桦 Charles Lee (id:1352759)

杜笃之 Du-Che Tu (id:1275159)

◎标 签 青春 / 台湾 / 爱情 / 成长 / 校园 / 文艺 / 友情 / 2016

◎简 介

小绿(董子健 饰)自幼和妈妈过着相依为命的生活,虽然家境贫寒谋生不易,但是小绿凭借着坚强的韧性和乐观向上的精神顺利且快乐的成长着。和好友阿智(林柏宏 饰)一起,小绿度过了美好的高中三年,美丽善良的女孩心蕊(颜卓灵 饰)给小绿的这三年带来了对于爱情美好的记忆和憧憬。

一晃眼,毕业季将近,在造化的捉弄之下,小绿和心蕊考进了不同的大学,瞬间拉远的距离让他们之间亲密无间的感情渐渐的发生了变化。尽管小绿一直都在非常积极的维持着这段异地恋,但他还是慢慢的感受到,心蕊对待自己的态度和以前不同了。

◎获奖情况 (共3项)

第53届台北金马影展 (2016)

金马奖 最佳男配角

└──林柏宏 (id:1275324)

第19届上海国际电影节 (2016)

电影频道传媒大奖 最受传媒关注新人男演员

└──林柏宏 (id:1275324)

电影频道传媒大奖 最受传媒关注新人女演员

└──颜卓灵 (id:1318260)

  1. ##### MediaInfo ######

  2. General

  3. Unique ID : 185944239248149453044627728576783881318 (0x8BE38ECE4D86FEA63C5F50457DE09466)

  4. Complete name : [email protected]

  5. Format : Matroska

  6. Format version : Version 4

  7. File size : 4.00 GiB

  8. Duration : 1 h 42 min

  9. Overall bit rate : 5 589 kb/s

  10. Movie name : At Cafe 6

  11. Encoded date : UTC 2021-09-25 03:59:55

  12. Writing application : mkvmerge v61.0.0 ('So') 64-bit

  13. Writing library : libebml v1.4.2 + libmatroska v1.6.4

  14. Cover : Yes

  15. Attachments : cover.jpg


  16. Video

  17. ID : 1

  18. Format : HEVC

  19. Format/Info : High Efficiency Video Coding

  20. Format profile : Main [email protected]@Main

  21. Codec ID : V_MPEGH/ISO/HEVC

  22. Duration : 1 h 42 min

  23. Bit rate : 4 044 kb/s

  24. Width : 1 920 pixels

  25. Height : 808 pixels

  26. Display aspect ratio : 2.40:1

  27. Frame rate mode : Constant

  28. Frame rate : 24.000 FPS

  29. Color space : YUV

  30. Chroma subsampling : 4:2:0

  31. Bit depth : 10 bits

  32. Bits/(Pixel*Frame) : 0.109

  33. Stream size : 2.89 GiB (72%)

  34. Writing library : x265 3.5+2-g2b25c9ba0+45:[Windows][GCC 10.2.0][64 bit] Yuuki 10bit+8bit+12bit

  35. Encoding settings : rc=crf / crf=20.0000 / qcomp=0.60 / qpstep=4 / stats-write=0 / stats-read=0 / no-lossless / no-cu-lossless / aq-mode=3 / aq-strength=0.90 / cbqpoffs=0 / crqpoffs=0 / ipratio=1.40 / pbratio=1.30 / psy-rd=2.00 / psy-rdoq=0.00 / deblock=0:0 / ref=6 / limit-refs=1 / no-limit-modes / bframes=8 / b-adapt=2 / bframe-bias=0 / b-pyramid / b-intra / weightp / weightb / min-keyint=24 / max-keyint=240 / rc-lookahead=24 / gop-lookahead=0 / NTMzNTQ=uuDQuD2mJt9fsCf / scenecut=40 / hist-scenecut=0 / radl=0 / max-cu-size=64 / min-cu-size=8 / me=3 / subme=7 / merange=48 / rdoq-level=0 / rd=4 / rdpenalty=0 / dynamic-rd=0.00 / no-rd-refine / ----- / cutree / sao / no-rect / no-amp / no-open-gop / wpp / no-pmode / no-pme / no-psnr / no-ssim / nr-intra=0 / nr-inter=0 / no-constrained-intra / no-strong-intra-smoothing / max-tu-size=32 / tu-inter-depth=1 / tu-intra-depth=1 / limit-tu=0 / qg-size=32 / qpmax=69 / qpmin=0 / ----- / cpuid=533541111039 / frame-threads=4 / numa-pools=+ / log-level=2 / input-csp=1 / input-res=1920x808 / interlace=0 / level-idc=0 / high-tier=1 / uhd-bd=0 / no-allow-non-conformance / no-repeat-headers / aud / no-hrd / info / hash=0 / no-temporal-layers / lookahead-slices=0 / no-splice / no-intra-refresh / no-ssim-rd / signhide / no-tskip / max-merge=3 / temporal-mvp / no-frame-dup / no-hme / no-analyze-src-pics / no-sao-non-deblock / selective-sao=4 / early-skip / rskip / no-fast-intra / no-tskip-fast / no-splitrd-skip / zone-count=0 / no-strict-cbr / no-rc-grain / no-const-vbv / sar=0 / overscan=0 / videoformat=5 / range=0 / colorprim=2 / transfer=2 / colormatrix=2 / chromaloc=0 / display-window=0 / cll=0,0 / min-luma=0 / max-luma=1023 / log2-max-poc-lsb=8 / vui-timing-info / vui-hrd-info / slices=1 / no-opt-qp-pps / no-opt-ref-list-length-pps / no-multi-pass-opt-rps / scenecut-bias=0.05 / hist-threshold=0.03 / no-opt-cu-delta-qp / no-aq-motion / no-hdr10 / no-hdr10-opt / no-dhdr10-opt / no-idr-recovery-sei / analysis-reuse-level=0 / analysis-save-reuse-level=0 / analysis-load-reuse-level=0 / scale-factor=0 / refine-intra=0 / refine-inter=0 / refine-mv=1 / refine-ctu-distortion=0 / no-limit-sao / ctu-info=0 / no-lowpass-dct / refine-analysis-type=0 / copy-pic=1 / max-ausize-factor=1.0 / no-dynamic-refine / no-single-sei / no-hevc-aq / no-svt / no-field / qp-adaptation-range=1.00 / scenecut-aware-qp=0conformance-window-offsets / right=0 / bottom=0 / NTMzNTQ= / decoder-max-rate=0 / no-vbv-live-multi-pass

  36. Default : Yes

  37. Forced : No


  38. Audio

  39. ID : 2

  40. Format : DTS

  41. Format/Info : Digital Theater Systems

  42. Codec ID : A_DTS

  43. Duration : 1 h 42 min

  44. Bit rate mode : Constant

  45. Bit rate : 1 510 kb/s

  46. Channel(s) : 6 channels

  47. Channel layout : C L R Ls Rs LFE

  48. Sampling rate : 48.0 kHz

  49. Frame rate : 93.750 FPS (512 SPF)

  50. Bit depth : 24 bits

  51. Compression mode : Lossy

  52. Stream size : 1.08 GiB (27%)

  53. Language : Chinese

  54. Default : Yes

  55. Forced : No


  56. Text #1

  57. ID : 3

  58. ID in the original source medium : 4609 (0x1201)

  59. Format : PGS

  60. Muxing mode : zlib

  61. Codec ID : S_HDMV/PGS

  62. Codec ID/Info : Picture based subtitle format used on BDs/HD-DVDs

  63. Duration : 1 h 40 min

  64. Bit rate : 28.5 kb/s

  65. Count of elements : 2428

  66. Stream size : 20.5 MiB (1%)

  67. Title : chs

  68. Language : Chinese

  69. Default : Yes

  70. Forced : No

  71. Original source medium : Blu-ray


  72. Text #2

  73. ID : 4

  74. ID in the original source medium : 4608 (0x1200)

  75. Format : PGS

  76. Muxing mode : zlib

  77. Codec ID : S_HDMV/PGS

  78. Codec ID/Info : Picture based subtitle format used on BDs/HD-DVDs

  79. Duration : 1 h 40 min

  80. Bit rate : 28.5 kb/s

  81. Count of elements : 2385

  82. Stream size : 20.6 MiB (1%)

  83. Title : cht

  84. Language : Chinese

  85. Default : No

  86. Forced : No

  87. Original source medium : Blu-ray


  88. Text #3

  89. ID : 5

  90. ID in the original source medium : 4610 (0x1202)

  91. Format : PGS

  92. Muxing mode : zlib

  93. Codec ID : S_HDMV/PGS

  94. Codec ID/Info : Picture based subtitle format used on BDs/HD-DVDs

  95. Duration : 1 h 40 min

  96. Bit rate : 33.9 kb/s

  97. Count of elements : 2438

  98. Stream size : 24.5 MiB (1%)

  99. Title : eng

  100. Language : English

  101. Default : No

  102. Forced : No

  103. Original source medium : Blu-ray


  104. Menu

  105. 00:00:00.000 : 第 01 章

  106. 00:08:47.500 : 第 02 章

  107. 00:18:46.541 : 第 03 章

  108. 00:24:27.041 : 第 04 章

  109. 00:34:50.333 : 第 05 章

  110. 00:43:28.458 : 第 06 章

  111. 00:54:06.458 : 第 07 章

  112. 00:59:46.833 : 第 08 章

  113. 01:06:53.833 : 第 09 章

  114. 01:16:09.958 : 第 10 章

  115. 01:26:01.375 : 第 11 章

  116. 01:31:52.041 : 第 12 章


文件下载


除非特别注明,本文『六弄咖啡馆[国语配音/中文字幕].At.Cafe.6.2016.1080p.BluRay.x265.10bit.DTS 4.00GB』来源于互联网机器人自动抓取,非本站原创。 浮游电影网不对本文拥有版权,如有侵犯,请联系邮箱:fuyouu#yandex.com[#换成@]投诉。我们会在15个工作日内删除。 但烦请转载时请标明出处:“本文转载于『浮游电影网』,原文地址:https://www.fuyouu.com/14587.html

评论吧骚年!

发表你的见解   

昵称*

E-mail*(建议输入,以便收到博主回复的提示邮件)

验证码*

您可以使用eMule或eMule Mod(Windows)、aMule(Win、Linux、Mac)等软件下载eD2k链接。。
eMule收藏集(.emulecollection)文件是您选中的所有链接的列表文件。eMule可以直接下载它们。
按住SHIFT键选择可以选中多个选择框。
可用文件名和大小选择器来选择文件。
文件名选择器帮您根据文件名称或后缀来选择文件。不分大小写。
符号使用:
和:空格( )、+
不包含:-
或:|
转义:一对英文引号("");
匹配开头:^
匹配结尾:$
例如:
选中所有名称中包含有“eMule”或“0.49c”字眼,但不包含有“exe”字眼的:emule|0.49c -exe
选中所有名称的开头是“eMule”,结尾是“0.49c”的:^emule 0.49c$
选中所有名称中带有“eMule 0.49c”的(必须是“eMule 0.49c”,中间没有别的字符,不能是“eMule fake 0.49c”),需要转义:"emule 0.49c"
大小选择器帮您根据文件大小选择文件。