当前位置: 首页 >> 海外电影 >> 太阳之子[中文字幕].Sun.Children.2020.1080p.FriDay.WEB-DL.H264.AAC 2.60GB >> 正文

太阳之子[中文字幕].Sun.Children.2020.1080p.FriDay.WEB-DL.H264.AAC 2.60GB

2021年09月26日 12:48:12     电影发布:来源于网络     电影分类:海外电影     评论(0)    

太阳之子[中文字幕].Sun.Children.2020.1080p.FriDay.WEB DL.H264.AAC 2.60GB 剧情片 海外电影  第1张

◎译 名 太阳之子 / 淘宝少年(台) / The Sun / Sun Children

◎片 名 ??????

◎年 代 2020

◎产 地 伊朗

◎类 别 剧情

◎语 言 波斯语

◎上映日期 2020-02-01(曙光旬电影节) / 2020-09-06(威尼斯电影节)

◎IMDb链接 https://www.imdb.com/title/tt11767722/

◎豆瓣评分 7.7/10 (1381人评价)

◎豆瓣链接 https://movie.douban.com/subject/35159294/

◎片 长 99分钟

◎导 演 马基德·马基迪 Majid Majidi (id:1275039)

◎编 剧 尼玛·贾维蒂 Ehsan Javidi (id:1343587)

马基德·马基迪 Majid Majidi (id:1275039)

◎演 员 塔纳兹·塔巴塔巴伊 Tannaz Tabatabayi (id:1358676)

鲁霍拉·扎马尼 Roohollah Zamani (id:1444374)

Ali Nassirian Ali Nassirian (id:1358390)

◎标 签 伊朗 / 马基德·马基迪 / 伊朗电影 / 2020 / 儿童 / 剧情 / 威尼斯电影节 / 电影

◎简 介

伊朗著名导演马基德·马基迪首度入围威尼斯电影节主竞赛新作。12岁的男孩阿里和他的三个小伙伴,因为生计和家庭原因,不得已常做出一些出格的事情。为了寻找传说中的地下宝库,阿里和他的朋友们混入并潜伏在太阳学校——一所为流浪儿童建立的社会福利机构。在那里,他们第一次被关注,世界的大门似乎重新打开。有太阳的地方,就一定会有希望吗?马基迪用极度流畅娴熟又充满关爱的笔触刻画了当代伊朗流浪儿童的新面貌,不卑不亢,极富感染力。

◎获奖情况 (共4项)

第77届威尼斯电影节 (2020)

主竞赛单元 金狮奖 (提名)

└──马基德·马基迪 (id:1275039)

马塞洛·马斯托依安尼奖(新锐演员奖)

└──鲁霍拉·扎马尼 (id:1444374)

第15届亚洲电影大奖 (2021)

最佳新演员(提名)

└──鲁霍拉·扎马尼 (id:1444374)

最佳剪接(提名)

  1. ##### MediaInfo ######

  2. General

  3. Unique ID : 251247759743891173926632987057044943099 (0xBD048EF2FB27D432A630BB9D4B6D70FB)

  4. Complete name : [email protected]mkv

  5. Format : Matroska

  6. Format version : Version 4

  7. File size : 2.59 GiB

  8. Duration : 1 h 38 min

  9. Overall bit rate : 3 763 kb/s

  10. Encoded date : UTC 2021-09-25 03:22:47

  11. Writing application : mkvmerge v56.1.0 ('My Friend') 64-bit

  12. Writing library : libebml v1.4.2 + libmatroska v1.6.4


  13. Video

  14. ID : 1

  15. Format : AVC

  16. Format/Info : Advanced Video Codec

  17. Format profile : [email protected]

  18. Format settings : CABAC / 1 Ref Frames

  19. Format settings, CABAC : Yes

  20. Format settings, Reference frames : 1 frame

  21. Format settings, GOP : M=1, N=60

  22. Codec ID : V_MPEG4/ISO/AVC

  23. Duration : 1 h 38 min

  24. Bit rate mode : Constant

  25. Bit rate : 3 635 kb/s

  26. Nominal bit rate : 4 000 kb/s

  27. Width : 1 920 pixels

  28. Height : 1 080 pixels

  29. Display aspect ratio : 16:9

  30. Frame rate mode : Constant

  31. Frame rate : 29.970 (30000/1001/53354) FPS

  32. Color space : YUV

  33. Chroma subsampling : 4:2:0

  34. Bit depth : 8 bits

  35. Scan type : Progressive

  36. Bits/(Pixel*Frame) : 0.058

  37. Stream size : 2.51 GiB (97%)

  38. Default : Yes

  39. Forced : No


  40. Audio

  41. ID : 2

  42. Format : AAC LC

  43. Format/Info : Advanced Audio Codec Low Complexity

  44. Codec ID : A_AAC-2

  45. Duration : 1 h 38 min

  46. Bit rate : 125 kb/s

  47. Channel(s) : 2 channels

  48. Channel layout : L R

  49. Sampling rate : 48.0 kHz

  50. Frame rate : 46.875 FPS (1024 SPF)

  51. Compression mode : Lossy

  52. Stream size : 88.6 MiB (3%)

  53. Language : Persian

  54. Default : Yes

  55. Forced : No


  56. Text #1

  57. ID : 3

  58. Format : UTF-8

  59. Codec ID : S_TEXT/UTF8

  60. Codec ID/Info : UTF-8 Plain Text

  61. Duration : 1 h 21 min

  62. Bit rate : 29 b/s

  63. Count of elements : 834

  64. Stream size : 17.5 KiB (0%)

  65. Title : Chinese Simplified

  66. Language : Chinese

  67. Default : Yes

  68. Forced : No


  69. Text #2

  70. ID : 4

  71. Format : UTF-8

  72. Codec ID : S_TEXT/UTF8

  73. Codec ID/Info : UTF-8 Plain Text

  74. Duration : 1 h 21 min

  75. Bit rate : 29 b/s

  76. Count of elements : 834

  77. Stream size : 17.5 KiB (0%)

  78. Title : Chinese Traditional

  79. Language : Chinese

  80. Default : No

  81. Forced : No


文件下载


除非特别注明,本文『太阳之子[中文字幕].Sun.Children.2020.1080p.FriDay.WEB-DL.H264.AAC 2.60GB』来源于互联网机器人自动抓取,非本站原创。 浮游电影网不对本文拥有版权,如有侵犯,请联系邮箱:fuyouu#yandex.com[#换成@]投诉。我们会在15个工作日内删除。 但烦请转载时请标明出处:“本文转载于『浮游电影网』,原文地址:https://www.fuyouu.com/14583.html

评论吧骚年!

发表你的见解   

昵称*

E-mail*(建议输入,以便收到博主回复的提示邮件)

验证码*

您可以使用eMule或eMule Mod(Windows)、aMule(Win、Linux、Mac)等软件下载eD2k链接。。
eMule收藏集(.emulecollection)文件是您选中的所有链接的列表文件。eMule可以直接下载它们。
按住SHIFT键选择可以选中多个选择框。
可用文件名和大小选择器来选择文件。
文件名选择器帮您根据文件名称或后缀来选择文件。不分大小写。
符号使用:
和:空格( )、+
不包含:-
或:|
转义:一对英文引号("");
匹配开头:^
匹配结尾:$
例如:
选中所有名称中包含有“eMule”或“0.49c”字眼,但不包含有“exe”字眼的:emule|0.49c -exe
选中所有名称的开头是“eMule”,结尾是“0.49c”的:^emule 0.49c$
选中所有名称中带有“eMule 0.49c”的(必须是“eMule 0.49c”,中间没有别的字符,不能是“eMule fake 0.49c”),需要转义:"emule 0.49c"
大小选择器帮您根据文件大小选择文件。