当前位置: 首页 >> 欧美电影 >> 八哥[中文字幕].The.Starling.2021.1080p.NF.WEB-DL.DDP5.1.Atmos.x264 10.78GB >> 正文

八哥[中文字幕].The.Starling.2021.1080p.NF.WEB-DL.DDP5.1.Atmos.x264 10.78GB

2021年09月26日 12:47:07     电影发布:来源于网络     电影分类:欧美电影     评论(0)    

八哥[中文字幕].The.Starling.2021.1080p.NF.WEB DL.DDP5.1.Atmos.x264 10.78GB 剧情片 欧美电影  第1张

◎译 名 八哥

◎片 名 The Starling

◎年 代 2021

◎产 地 美国

◎类 别 剧情

◎语 言 英语

◎上映日期 2021-09-24(美国)

◎IMDb链接 https://www.imdb.com/title/tt5164438/

◎豆瓣链接 https://movie.douban.com/subject/3152672/

◎片 长 102分钟

◎导 演 西奥多·梅尔菲 Theodore Melfi (id:1335397)

◎演 员 蒂莫西·奥利芬特 Timothy Olyphant (id:1044704)

梅丽莎·麦卡西 Melissa McCarthy (id:1049660)

斯凯勒·吉桑多 Skyler Gisondo (id:1009602)

凯文·克莱恩 Kevin Kline (id:1040531)

克里斯·奥多德 Chris O'Dowd (id:1031755)

劳拉·哈里尔 Laura Harrier (id:1356935)

戴维德·迪格斯 Daveed Diggs (id:1370143)

赵家玲 Rosalind Chao (id:1027926)

维罗尼卡·法尔孔 Veronica Falcón (id:1191720)

洛雷塔·迪瓦恩 Loretta Devine (id:1083562)

斯科特·麦克阿瑟 Scott MacArthur (id:1334798)

金贝利·奎恩 Kimberly Quinn (id:1326643)

南茜·德·梅奥 Nancy De Mayo (id:1390261)

拉维·卡普尔 Ravi Kapoor (id:1420437)

艾米莉·特里梅因 Emily Tremaine (id:1337661)

珍妮卡·贝尔格雷 Jenica Bergere (id:1066955)

汤姆·埃沃雷特 Tom Everett (id:1083989)

吴辛惠 Cynthy Wu (id:1369963)

欧文·阿特拉斯 Owen Atlas (id:1380513)

大卫·博伊斯 David Boies (id:1212151)

西奥多·梅尔菲 Theodore Melfi (id:1335397)

金贝利·奎恩 Kimberly Quinn (id:1326643)

本杰明·沃菲斯齐 Benjamin Wallfisch (id:1308918)

劳伦斯·谢尔 Lawrence Sher (id:1005371)

马特·弗里德曼 Matt Friedman (id:1427884)

玛丽·韦尔涅 Mary Vernieu (id:1299999)

苏·德萨图 Susie DeSanto (id:1282289)

◎标 签 梅丽莎·麦卡西 / 剧情 / 美国电影 / 电影 / 2021 / 音 / 美国 / 多伦多电影节

◎简 介

梅丽莎·麦卡西、克里斯·奥多德或将与导演西奥多·梅尔菲([圣人文森特])再聚首,出演后者的喜剧新片[八哥]。影片描绘了一对夫妻遭遇悲剧,使他们的关系变得紧张。当莉莉·梅纳德的丈夫进行康复治疗、缓解悲痛时,她选择待在家里陪伴丈夫。而他在后院为她建造了一个美丽的花园,但她却发现自己被一只附近筑巢的大型八哥所袭击。

她找到一位兽医,想寻找是否有一种人道的方式来摆脱这只鸟。但那位兽医其实曾经是一名精神科医生,为人类制造动物,他将自己的印记置于这些动物之内。这部电影讲述了爱是如何通过悲伤而来。本片计划于今夏开机。

  1. ##### MediaInfo ######

  2. General

  3. Unique ID : 274670848178296372898475999166355445401 (0xCEA3AE5EE876DBFFF85334CC6D479699)

  4. Complete name : [email protected].COM.mkv

  5. Format : Matroska

  6. Format version : Version 4

  7. File size : 10.8 GiB

  8. Duration : 1 h 44 min

  9. Overall bit rate mode : Variable

  10. Overall bit rate : 14.8 Mb/s

  11. Encoded date : UTC 2021-09-24 17:12:37

  12. Writing application : mkvmerge v44.0.0 ('Domino') 64-bit

  13. Writing library : libebml v1.3.10 + libmatroska v1.5.2


  14. Video

  15. ID : 1

  16. Format : AVC

  17. Format/Info : Advanced Video Codec

  18. Format profile : [email protected]

  19. Format settings : CABAC / 4 Ref Frames

  20. Format settings, CABAC : Yes

  21. Format settings, Reference frames : 4 frames

  22. Codec ID : V_MPEG4/ISO/AVC

  23. Duration : 1 h 44 min

  24. Bit rate mode : Variable

  25. Bit rate : 6 998 kb/s

  26. Maximum bit rate : 20.0 Mb/s

  27. Width : 1 920 pixels

  28. Height : 1 080 pixels

  29. Display aspect ratio : 16:9

  30. Frame rate mode : Constant

  31. Frame rate : 24.000 FPS

  32. Color space : YUV

  33. Chroma subsampling : 4:2:0

  34. Bit depth : 8 bits

  35. Scan type : Progressive

  36. Bits/(Pixel*Frame) : 0.141

  37. Stream size : 5.09 GiB (47%)

  38. Writing library : x264 core 148 r2724 dbe0335

  39. Encoding settings : cabac=1 / ref=4 / deblock=1:0:0 / analyse=0x3:0x111 / me=umh / subme=10 / psy=1 / psy_rd=1.00:0.00 / mixed_ref=1 / me_range=120 / chroma_me=1 / trellis=2 / 8x8dct=1 / cqm=0 / deadzone=21,11 / fast_pskip=1 / chroma_qp_offset=-2 / threads=8 / lookahead_threads=2 / sliced_threads=0 / nr=0 / decimate=1 / interlaced=0 / NTMzNTQ= / bluray_compat=0 / stitchable=1 / constrained_intra=0 / bframes=16 / b_pyramid=2 / b_adapt=2 / b_bias=0 / direct=3 / weightb=1 / open_gop=0 / weightp=2 / keyint=240 / keyint_min=121 / scenecut=0 / intra_refresh=0 / rc_lookahead=240 / rc=crf / mbtree=1 / crf=16.0 / qcomp=0.50 / qpmin=6 / qpmax=51 / qpstep=4 / vbv_maxrate=20000 / vbv_bufsize=25000 / crf_max=0.0 / nal_hrd=vbr / filler=0 / NTMzNTQ=LmsMAP37EqsCpk / ip_ratio=1.40 / aq=1:0.80

  40. Default : Yes

  41. Forced : No


  42. Audio #1

  43. ID : 2

  44. Format : E-AC-3 JOC

  45. Format/Info : Enhanced AC-3 with Joint Object Coding

  46. Commercial name : Dolby Digital Plus with Dolby Atmos

  47. Codec ID : A_EAC3

  48. Duration : 1 h 44 min

  49. Bit rate mode : Constant

  50. Bit rate : 768 kb/s

  51. Channel(s) : 6 channels

  52. Channel layout : L R C LFE Ls Rs

  53. Sampling rate : 48.0 kHz

  54. Frame rate : 31.250 FPS (1536 SPF)

  55. Compression mode : Lossy

  56. Stream size : 572 MiB (5%)

  57. Title : English

  58. Language : English

  59. Service kind : Complete Main

  60. Default : Yes

  61. Forced : No

  62. Complexity index : 16

  63. Number of dynamic objects : 15

  64. Bed channel count : 1 channel

  65. Bed channel configuration : LFE


  66. Audio #2

  67. ID : 3

  68. Format : E-AC-3

  69. Format/Info : Enhanced AC-3

  70. Commercial name : Dolby Digital Plus

  71. Codec ID : A_EAC3

  72. Duration : 1 h 44 min

  73. Bit rate mode : Constant

  74. Bit rate : 640 kb/s

  75. Channel(s) : 6 channels

  76. Channel layout : L R C LFE Ls Rs

  77. Sampling rate : 48.0 kHz

  78. Frame rate : 31.250 FPS (1536 SPF)

  79. Compression mode : Lossy

  80. Stream size : 477 MiB (4%)

  81. Title : Czech

  82. Language : Czech

  83. Service kind : Complete Main

  84. Default : No

  85. Forced : No


  86. Audio #3

  87. ID : 4

  88. Format : E-AC-3

  89. Format/Info : Enhanced AC-3

  90. Commercial name : Dolby Digital Plus

  91. Codec ID : A_EAC3

  92. Duration : 1 h 44 min

  93. Bit rate mode : Constant

  94. Bit rate : 640 kb/s

  95. Channel(s) : 6 channels

  96. Channel layout : L R C LFE Ls Rs

  97. Sampling rate : 48.0 kHz

  98. Frame rate : 31.250 FPS (1536 SPF)

  99. Compression mode : Lossy

  100. Stream size : 477 MiB (4%)

  101. Title : French

  102. Language : French

  103. Service kind : Complete Main

  104. Default : No

  105. Forced : No


  106. Audio #4

  107. ID : 5

  108. Format : E-AC-3

  109. Format/Info : Enhanced AC-3

  110. Commercial name : Dolby Digital Plus

  111. Codec ID : A_EAC3

  112. Duration : 1 h 44 min

  113. Bit rate mode : Constant

  114. Bit rate : 640 kb/s

  115. Channel(s) : 6 channels

  116. Channel layout : L R C LFE Ls Rs

  117. Sampling rate : 48.0 kHz

  118. Frame rate : 31.250 FPS (1536 SPF)

  119. Compression mode : Lossy

  120. Stream size : 477 MiB (4%)

  121. Title : German

  122. Language : German

  123. Service kind : Complete Main

  124. Default : No

  125. Forced : No


  126. Audio #5

  127. ID : 6

  128. Format : E-AC-3

  129. Format/Info : Enhanced AC-3

  130. Commercial name : Dolby Digital Plus

  131. Codec ID : A_EAC3

  132. Duration : 1 h 44 min

  133. Bit rate mode : Constant

  134. Bit rate : 640 kb/s

  135. Channel(s) : 6 channels

  136. Channel layout : L R C LFE Ls Rs

  137. Sampling rate : 48.0 kHz

  138. Frame rate : 31.250 FPS (1536 SPF)

  139. Compression mode : Lossy

  140. Stream size : 477 MiB (4%)

  141. Title : Hungarian

  142. Language : Hungarian

  143. Service kind : Complete Main

  144. Default : No

  145. Forced : No


  146. Audio #6

  147. ID : 7

  148. Format : E-AC-3

  149. Format/Info : Enhanced AC-3

  150. Commercial name : Dolby Digital Plus

  151. Codec ID : A_EAC3

  152. Duration : 1 h 44 min

  153. Bit rate mode : Constant

  154. Bit rate : 640 kb/s

  155. Channel(s) : 6 channels

  156. Channel layout : L R C LFE Ls Rs

  157. Sampling rate : 48.0 kHz

  158. Frame rate : 31.250 FPS (1536 SPF)

  159. Compression mode : Lossy

  160. Stream size : 477 MiB (4%)

  161. Title : Italian

  162. Language : Italian

  163. Service kind : Complete Main

  164. Default : No

  165. Forced : No


  166. Audio #7

  167. ID : 8

  168. Format : E-AC-3

  169. Format/Info : Enhanced AC-3

  170. Commercial name : Dolby Digital Plus

  171. Codec ID : A_EAC3

  172. Duration : 1 h 44 min

  173. Bit rate mode : Constant

  174. Bit rate : 640 kb/s

  175. Channel(s) : 6 channels

  176. Channel layout : L R C LFE Ls Rs

  177. Sampling rate : 48.0 kHz

  178. Frame rate : 31.250 FPS (1536 SPF)

  179. Compression mode : Lossy

  180. Stream size : 477 MiB (4%)

  181. Title : Polish

  182. Language : Polish

  183. Service kind : Complete Main

  184. Default : No

  185. Forced : No


  186. Audio #8

  187. ID : 9

  188. Format : E-AC-3

  189. Format/Info : Enhanced AC-3

  190. Commercial name : Dolby Digital Plus

  191. Codec ID : A_EAC3

  192. Duration : 1 h 44 min

  193. Bit rate mode : Constant

  194. Bit rate : 640 kb/s

  195. Channel(s) : 6 channels

  196. Channel layout : L R C LFE Ls Rs

  197. Sampling rate : 48.0 kHz

  198. Frame rate : 31.250 FPS (1536 SPF)

  199. Compression mode : Lossy

  200. Stream size : 477 MiB (4%)

  201. Title : Brazilian Portuguese

  202. Language : Portuguese

  203. Service kind : Complete Main

  204. Default : No

  205. Forced : No


  206. Audio #9

  207. ID : 10

  208. Format : E-AC-3

  209. Format/Info : Enhanced AC-3

  210. Commercial name : Dolby Digital Plus

  211. Codec ID : A_EAC3

  212. Duration : 1 h 44 min

  213. Bit rate mode : Constant

  214. Bit rate : 640 kb/s

  215. Channel(s) : 6 channels

  216. Channel layout : L R C LFE Ls Rs

  217. Sampling rate : 48.0 kHz

  218. Frame rate : 31.250 FPS (1536 SPF)

  219. Compression mode : Lossy

  220. Stream size : 477 MiB (4%)

  221. Title : Russian

  222. Language : Russian

  223. Service kind : Complete Main

  224. Default : No

  225. Forced : No


  226. Audio #10

  227. ID : 11

  228. Format : E-AC-3

  229. Format/Info : Enhanced AC-3

  230. Commercial name : Dolby Digital Plus

  231. Codec ID : A_EAC3

  232. Duration : 1 h 44 min

  233. Bit rate mode : Constant

  234. Bit rate : 640 kb/s

  235. Channel(s) : 6 channels

  236. Channel layout : L R C LFE Ls Rs

  237. Sampling rate : 48.0 kHz

  238. Frame rate : 31.250 FPS (1536 SPF)

  239. Compression mode : Lossy

  240. Stream size : 477 MiB (4%)

  241. Title : Spanish

  242. Language : Spanish

  243. Service kind : Complete Main

  244. Default : No

  245. Forced : No


  246. Audio #11

  247. ID : 12

  248. Format : E-AC-3

  249. Format/Info : Enhanced AC-3

  250. Commercial name : Dolby Digital Plus

  251. Codec ID : A_EAC3

  252. Duration : 1 h 44 min

  253. Bit rate mode : Constant

  254. Bit rate : 640 kb/s

  255. Channel(s) : 6 channels

  256. Channel layout : L R C LFE Ls Rs

  257. Sampling rate : 48.0 kHz

  258. Frame rate : 31.250 FPS (1536 SPF)

  259. Compression mode : Lossy

  260. Stream size : 477 MiB (4%)

  261. Title : European Spanish

  262. Language : Spanish

  263. Service kind : Complete Main

  264. Default : No

  265. Forced : No


  266. Audio #12

  267. ID : 13

  268. Format : E-AC-3

  269. Format/Info : Enhanced AC-3

  270. Commercial name : Dolby Digital Plus

  271. Codec ID : A_EAC3

  272. Duration : 1 h 44 min

  273. Bit rate mode : Constant

  274. Bit rate : 640 kb/s

  275. Channel(s) : 6 channels

  276. Channel layout : L R C LFE Ls Rs

  277. Sampling rate : 48.0 kHz

  278. Frame rate : 31.250 FPS (1536 SPF)

  279. Compression mode : Lossy

  280. Stream size : 477 MiB (4%)

  281. Title : Turkish

  282. Language : Turkish

  283. Service kind : Complete Main

  284. Default : No

  285. Forced : No


  286. Text #1

  287. ID : 14

  288. Format : UTF-8

  289. Codec ID : S_TEXT/UTF8

  290. Codec ID/Info : UTF-8 Plain Text

  291. Duration : 1 h 42 min

  292. Bit rate : 97 b/s

  293. Count of elements : 1738

  294. Stream size : 72.5 KiB (0%)

  295. Title : English

  296. Language : English

  297. Default : Yes

  298. Forced : No


  299. Text #2

  300. ID : 15

  301. Format : UTF-8

  302. Codec ID : S_TEXT/UTF8

  303. Codec ID/Info : UTF-8 Plain Text

  304. Duration : 3 s 42 ms

  305. Bit rate : 92 b/s

  306. Count of elements : 1

  307. Stream size : 35.0 Bytes (0%)

  308. Title : English (Forced)

  309. Language : English

  310. Default : No

  311. Forced : Yes


  312. Text #3

  313. ID : 16

  314. Format : UTF-8

  315. Codec ID : S_TEXT/UTF8

  316. Codec ID/Info : UTF-8 Plain Text

  317. Duration : 1 h 42 min

  318. Bit rate : 88 b/s

  319. Count of elements : 1320

  320. Stream size : 66.7 KiB (0%)

  321. Title : Arabic

  322. Language : Arabic

  323. Default : No

  324. Forced : No


  325. Text #4

  326. ID : 17

  327. Format : UTF-8

  328. Codec ID : S_TEXT/UTF8

  329. Codec ID/Info : UTF-8 Plain Text

  330. Duration : 1 h 42 min

  331. Bit rate : 54 b/s

  332. Count of elements : 1301

  333. Stream size : 40.7 KiB (0%)

  334. Title : Chinese Simplified

  335. Language : Chinese

  336. Default : No

  337. Forced : No


  338. Text #5

  339. ID : 18

  340. Format : UTF-8

  341. Codec ID : S_TEXT/UTF8

  342. Codec ID/Info : UTF-8 Plain Text

  343. Duration : 1 h 42 min

  344. Bit rate : 52 b/s

  345. Count of elements : 1424

  346. Stream size : 39.5 KiB (0%)

  347. Title : Chinese Traditional

  348. Language : Chinese

  349. Default : No

  350. Forced : No


  351. Text #6

  352. ID : 19

  353. Format : UTF-8

  354. Codec ID : S_TEXT/UTF8

  355. Codec ID/Info : UTF-8 Plain Text

  356. Duration : 1 h 42 min

  357. Bit rate : 47 b/s

  358. Count of elements : 1264

  359. Stream size : 35.5 KiB (0%)

  360. Title : Croatian

  361. Language : Croatian

  362. Default : No

  363. Forced : No


  364. Text #7

  365. ID : 20

  366. Format : UTF-8

  367. Codec ID : S_TEXT/UTF8

  368. Codec ID/Info : UTF-8 Plain Text

  369. Duration : 1 h 42 min

  370. Bit rate : 52 b/s

  371. Count of elements : 1295

  372. Stream size : 39.2 KiB (0%)

  373. Title : Czech

  374. Language : Czech

  375. Default : No

  376. Forced : No


  377. Text #8

  378. ID : 21

  379. Format : UTF-8

  380. Codec ID : S_TEXT/UTF8

  381. Codec ID/Info : UTF-8 Plain Text

  382. Duration : 1 h 42 min

  383. Bit rate : 48 b/s

  384. Count of elements : 1214

  385. Stream size : 36.6 KiB (0%)

  386. Title : Danish

  387. Language : Danish

  388. Default : No

  389. Forced : No


  390. Text #9

  391. ID : 22

  392. Format : UTF-8

  393. Codec ID : S_TEXT/UTF8

  394. Codec ID/Info : UTF-8 Plain Text

  395. Duration : 1 h 42 min

  396. Bit rate : 40 b/s

  397. Count of elements : 971

  398. Stream size : 30.8 KiB (0%)

  399. Title : Dutch

  400. Language : Dutch

  401. Default : No

  402. Forced : No


  403. Text #10

  404. ID : 23

  405. Format : UTF-8

  406. Codec ID : S_TEXT/UTF8

  407. Codec ID/Info : UTF-8 Plain Text

  408. Duration : 1 h 42 min

  409. Bit rate : 49 b/s

  410. Count of elements : 1057

  411. Stream size : 37.3 KiB (0%)

  412. Title : Finnish

  413. Language : Finnish

  414. Default : No

  415. Forced : No


  416. Text #11

  417. ID : 24

  418. Format : UTF-8

  419. Codec ID : S_TEXT/UTF8

  420. Codec ID/Info : UTF-8 Plain Text

  421. Duration : 1 h 42 min

  422. Bit rate : 51 b/s

  423. Count of elements : 1231

  424. Stream size : 39.1 KiB (0%)

  425. Title : French

  426. Language : French

  427. Default : No

  428. Forced : No


  429. Text #12

  430. ID : 25

  431. Format : UTF-8

  432. Codec ID : S_TEXT/UTF8

  433. Codec ID/Info : UTF-8 Plain Text

  434. Duration : 1 h 42 min

  435. Bit rate : 56 b/s

  436. Count of elements : 1272

  437. Stream size : 42.3 KiB (0%)

  438. Title : German

  439. Language : German

  440. Default : No

  441. Forced : No


  442. Text #13

  443. ID : 26

  444. Format : UTF-8

  445. Codec ID : S_TEXT/UTF8

  446. Codec ID/Info : UTF-8 Plain Text

  447. Duration : 1 h 42 min

  448. Bit rate : 84 b/s

  449. Count of elements : 1291

  450. Stream size : 63.9 KiB (0%)

  451. Title : Greek

  452. Language : Greek

  453. Default : No

  454. Forced : No


  455. Text #14

  456. ID : 27

  457. Format : UTF-8

  458. Codec ID : S_TEXT/UTF8

  459. Codec ID/Info : UTF-8 Plain Text

  460. Duration : 1 h 42 min

  461. Bit rate : 82 b/s

  462. Count of elements : 1299

  463. Stream size : 61.9 KiB (0%)

  464. Title : Hebrew

  465. Language : Hebrew

  466. Default : No

  467. Forced : No


  468. Text #15

  469. ID : 28

  470. Format : UTF-8

  471. Codec ID : S_TEXT/UTF8

  472. Codec ID/Info : UTF-8 Plain Text

  473. Duration : 1 h 42 min

  474. Bit rate : 46 b/s

  475. Count of elements : 1262

  476. Stream size : 35.0 KiB (0%)

  477. Title : Hungarian

  478. Language : Hungarian

  479. Default : No

  480. Forced : No


  481. Text #16

  482. ID : 29

  483. Format : UTF-8

  484. Codec ID : S_TEXT/UTF8

  485. Codec ID/Info : UTF-8 Plain Text

  486. Duration : 1 h 42 min

  487. Bit rate : 48 b/s

  488. Count of elements : 1292

  489. Stream size : 36.3 KiB (0%)

  490. Title : Indonesian

  491. Language : Indonesian

  492. Default : No

  493. Forced : No


  494. Text #17

  495. ID : 30

  496. Format : UTF-8

  497. Codec ID : S_TEXT/UTF8

  498. Codec ID/Info : UTF-8 Plain Text

  499. Duration : 1 h 42 min

  500. Bit rate : 51 b/s

  501. Count of elements : 1237

  502. Stream size : 38.9 KiB (0%)

  503. Title : Italian

  504. Language : Italian

  505. Default : No

  506. Forced : No


  507. Text #18

  508. ID : 31

  509. Format : UTF-8

  510. Codec ID : S_TEXT/UTF8

  511. Codec ID/Info : UTF-8 Plain Text

  512. Duration : 1 h 42 min

  513. Bit rate : 48 b/s

  514. Count of elements : 1296

  515. Stream size : 36.3 KiB (0%)

  516. Title : Japanese

  517. Language : Japanese

  518. Default : No

  519. Forced : No


  520. Text #19

  521. ID : 32

  522. Format : UTF-8

  523. Codec ID : S_TEXT/UTF8

  524. Codec ID/Info : UTF-8 Plain Text

  525. Duration : 1 h 42 min

  526. Bit rate : 64 b/s

  527. Count of elements : 1305

  528. Stream size : 48.2 KiB (0%)

  529. Title : Korean

  530. Language : Korean

  531. Default : No

  532. Forced : No


  533. Text #20

  534. ID : 33

  535. Format : UTF-8

  536. Codec ID : S_TEXT/UTF8

  537. Codec ID/Info : UTF-8 Plain Text

  538. Duration : 1 h 42 min

  539. Bit rate : 49 b/s

  540. Count of elements : 1291

  541. Stream size : 37.2 KiB (0%)

  542. Title : Malay

  543. Language : Malay

  544. Default : No

  545. Forced : No


  546. Text #21

  547. ID : 34

  548. Format : UTF-8

  549. Codec ID : S_TEXT/UTF8

  550. Codec ID/Info : UTF-8 Plain Text

  551. Duration : 1 h 42 min

  552. Bit rate : 48 b/s

  553. Count of elements : 1039

  554. Stream size : 36.6 KiB (0%)

  555. Title : Norwegian Bokmal

  556. Language : Norwegian Bokmal

  557. Default : No

  558. Forced : No


  559. Text #22

  560. ID : 35

  561. Format : UTF-8

  562. Codec ID : S_TEXT/UTF8

  563. Codec ID/Info : UTF-8 Plain Text

  564. Duration : 1 h 42 min

  565. Bit rate : 45 b/s

  566. Count of elements : 1259

  567. Stream size : 34.5 KiB (0%)

  568. Title : Polish

  569. Language : Polish

  570. Default : No

  571. Forced : No


  572. Text #23

  573. ID : 36

  574. Format : UTF-8

  575. Codec ID : S_TEXT/UTF8

  576. Codec ID/Info : UTF-8 Plain Text

  577. Duration : 1 h 42 min

  578. Bit rate : 50 b/s

  579. Count of elements : 1259

  580. Stream size : 37.9 KiB (0%)

  581. Title : Portuguese

  582. Language : Portuguese

  583. Default : No

  584. Forced : No


  585. Text #24

  586. ID : 37

  587. Format : UTF-8

  588. Codec ID : S_TEXT/UTF8

  589. Codec ID/Info : UTF-8 Plain Text

  590. Duration : 1 h 42 min

  591. Bit rate : 50 b/s

  592. Count of elements : 1270

  593. Stream size : 37.7 KiB (0%)

  594. Title : Brazilian Portuguese

  595. Language : Portuguese

  596. Default : No

  597. Forced : No


  598. Text #25

  599. ID : 38

  600. Format : UTF-8

  601. Codec ID : S_TEXT/UTF8

  602. Codec ID/Info : UTF-8 Plain Text

  603. Duration : 1 h 37 min

  604. Bit rate : 58 b/s

  605. Count of elements : 1279

  606. Stream size : 41.6 KiB (0%)

  607. Title : Romanian

  608. Language : Romanian

  609. Default : No

  610. Forced : No


  611. Text #26

  612. ID : 39

  613. Format : UTF-8

  614. Codec ID : S_TEXT/UTF8

  615. Codec ID/Info : UTF-8 Plain Text

  616. Duration : 1 h 42 min

  617. Bit rate : 77 b/s

  618. Count of elements : 1246

  619. Stream size : 58.6 KiB (0%)

  620. Title : Russian

  621. Language : Russian

  622. Default : No

  623. Forced : No


  624. Text #27

  625. ID : 40

  626. Format : UTF-8

  627. Codec ID : S_TEXT/UTF8

  628. Codec ID/Info : UTF-8 Plain Text

  629. Duration : 1 h 42 min

  630. Bit rate : 51 b/s

  631. Count of elements : 1336

  632. Stream size : 38.8 KiB (0%)

  633. Title : Spanish

  634. Language : Spanish

  635. Default : No

  636. Forced : No


  637. Text #28

  638. ID : 41

  639. Format : UTF-8

  640. Codec ID : S_TEXT/UTF8

  641. Codec ID/Info : UTF-8 Plain Text

  642. Duration : 1 h 42 min

  643. Bit rate : 49 b/s

  644. Count of elements : 1269

  645. Stream size : 37.6 KiB (0%)

  646. Title : European Spanish

  647. Language : Spanish

  648. Default : No

  649. Forced : No


  650. Text #29

  651. ID : 42

  652. Format : UTF-8

  653. Codec ID : S_TEXT/UTF8

  654. Codec ID/Info : UTF-8 Plain Text

  655. Duration : 1 h 42 min

  656. Bit rate : 49 b/s

  657. Count of elements : 1116

  658. Stream size : 37.5 KiB (0%)

  659. Title : Swedish

  660. Language : Swedish

  661. Default : No

  662. Forced : No


  663. Text #30

  664. ID : 43

  665. Format : UTF-8

  666. Codec ID : S_TEXT/UTF8

  667. Codec ID/Info : UTF-8 Plain Text

  668. Duration : 1 h 42 min

  669. Bit rate : 129 b/s

  670. Count of elements : 1300

  671. Stream size : 97.6 KiB (0%)

  672. Title : Thai

  673. Language : Thai

  674. Default : No

  675. Forced : No


  676. Text #31

  677. ID : 44

  678. Format : UTF-8

  679. Codec ID : S_TEXT/UTF8

  680. Codec ID/Info : UTF-8 Plain Text

  681. Duration : 1 h 42 min

  682. Bit rate : 50 b/s

  683. Count of elements : 1288

  684. Stream size : 37.9 KiB (0%)

  685. Title : Turkish

  686. Language : Turkish

  687. Default : No

  688. Forced : No


  689. Text #32

  690. ID : 45

  691. Format : UTF-8

  692. Codec ID : S_TEXT/UTF8

  693. Codec ID/Info : UTF-8 Plain Text

  694. Duration : 1 h 42 min

  695. Bit rate : 85 b/s

  696. Count of elements : 1282

  697. Stream size : 64.0 KiB (0%)

  698. Title : Ukrainian

  699. Language : Ukrainian

  700. Default : No

  701. Forced : No


  702. Text #33

  703. ID : 46

  704. Format : UTF-8

  705. Codec ID : S_TEXT/UTF8

  706. Codec ID/Info : UTF-8 Plain Text

  707. Duration : 1 h 42 min

  708. Bit rate : 70 b/s

  709. Count of elements : 1285

  710. Stream size : 52.8 KiB (0%)

  711. Title : Vietnamese

  712. Language : Vietnamese

  713. Default : No

  714. Forced : No


文件下载


除非特别注明,本文『八哥[中文字幕].The.Starling.2021.1080p.NF.WEB-DL.DDP5.1.Atmos.x264 10.78GB』来源于互联网机器人自动抓取,非本站原创。 浮游电影网不对本文拥有版权,如有侵犯,请联系邮箱:fuyouu#yandex.com[#换成@]投诉。我们会在15个工作日内删除。 但烦请转载时请标明出处:“本文转载于『浮游电影网』,原文地址:https://www.fuyouu.com/14582.html

评论吧骚年!

发表你的见解   

昵称*

E-mail*(建议输入,以便收到博主回复的提示邮件)

验证码*

您可以使用eMule或eMule Mod(Windows)、aMule(Win、Linux、Mac)等软件下载eD2k链接。。
eMule收藏集(.emulecollection)文件是您选中的所有链接的列表文件。eMule可以直接下载它们。
按住SHIFT键选择可以选中多个选择框。
可用文件名和大小选择器来选择文件。
文件名选择器帮您根据文件名称或后缀来选择文件。不分大小写。
符号使用:
和:空格( )、+
不包含:-
或:|
转义:一对英文引号("");
匹配开头:^
匹配结尾:$
例如:
选中所有名称中包含有“eMule”或“0.49c”字眼,但不包含有“exe”字眼的:emule|0.49c -exe
选中所有名称的开头是“eMule”,结尾是“0.49c”的:^emule 0.49c$
选中所有名称中带有“eMule 0.49c”的(必须是“eMule 0.49c”,中间没有别的字符,不能是“eMule fake 0.49c”),需要转义:"emule 0.49c"
大小选择器帮您根据文件大小选择文件。