当前位置: 首页 >> 动画电影 >> 小马宝莉:新世代[国语配音/中文字幕].My.Little.Pony.A.New.Generation.2021.1080p.NF.WEB-DL.DDP5.1.x264 14.71GB >> 正文

小马宝莉:新世代[国语配音/中文字幕].My.Little.Pony.A.New.Generation.2021.1080p.NF.WEB-DL.DDP5.1.x264 14.71GB

2021年09月26日 12:45:41     电影发布:来源于网络     电影分类:动画电影     评论(0)    

小马宝莉:新世代[国语配音/中文字幕].My.Little.Pony.A.New.Generation.2021.1080p.NF.WEB DL.DDP5.1.x264 14.71GB 冒险片 动画片 家庭片 奇幻片 喜剧片 动画电影  第1张

◎译 名 小马宝莉:新世代 / My Little Pony:新世代 / 彩虹小马:新生代(台) / My Little Pony:活力新生代 / 小马宝莉:新一代

◎片 名 My Little Pony: A New Generation

◎年 代 2021

◎产 地 美国 / 爱尔兰 / 加拿大

◎类 别 喜剧 / 动画 / 家庭 / 奇幻 / 冒险

◎语 言 英语

◎上映日期 2021-09-24(美国)

◎IMDb链接 https://www.imdb.com/title/tt10101702/

◎豆瓣链接 https://movie.douban.com/subject/34938552/

◎片 长 90分钟

◎导 演 罗伯特·库仑 Robert Cullen (id:1310799)

何塞·路易斯·乌查 José Luis Ucha (id:1460777)

马克·法蒂宾 Mark Fattibene (id:1460778)

◎编 剧 罗伯特·库仑 Robert Cullen (id:1310799)

Tim Sullivan Tim Sullivan (id:1340625)

劳伦·浮士德 Lauren Faust (id:1283489)

何塞·路易斯·乌查 José Luis Ucha (id:1460777)

◎演 员 伊丽莎白·帕金斯 Elizabeth Perkins (id:1040536)

詹姆斯·麦斯登 James Marsden (id:1048023)

凡妮莎·哈金斯 Vanessa Hudgens (id:1025150)

郑肯 Ken Jeong (id:1275017)

简·科拉克斯基 Jane Krakowski (id:1027199)

贵美子·格伦 Kimiko Glenn (id:1333568)

迈克尔·麦基恩 Michael McKean (id:1027868)

索菲亚·卡尔森 Sofia Carson (id:1351062)

菲尔·拉马 Phil LaMarr (id:1007036)

丽兹·考什 Liza Koshy (id:1363703)

Peter Lewis Peter Lewis (id:1452307)

◎标 签 小马宝莉 / 动画 / 美国 / 喜剧 / 冒险 / 2021 / 预告2021 / 欧美

◎简 介

不可思议的事情发生了······小马利亚失去了魔力!陆马、独角兽和飞马不再是朋友,如今只有同种族的小马才会待在一起。但理想主义的年轻陆马桑尼(凡妮莎·哈金斯配音)决心找到一种方法,让世界重新拥有魔法并变得像以前一样团结。她与性格开朗的独角兽伊兹(贵美子·格伦配音)一起前往遥远的国度,在那里她们遇到了富有魅力且勇敢的飞马皮璞(索菲亚·卡尔森配音)和齐璞(丽兹·考什配音),以及使命感满满的陆马希区烈焰(詹姆斯·麦斯登配音)。他们在完成任务的过程中遇到了诸多困难,但每一位新的好朋友都有自己独一无二的天赋,这可能正是小马利亚恢复魔法所需要的东西,并证明了小马也能带来大改变。

  1. ##### MediaInfo ######

  2. General

  3. Unique ID : 164600238618002095158058015141936291043 (0x7BD4DA53C5CD7E99EE9DFE2095CCDCE3)

  4. Complete name : My.Litt[email protected]BBQDDQ.COM.mkv

  5. Format : Matroska

  6. Format version : Version 4

  7. File size : 14.7 GiB

  8. Duration : 1 h 31 min

  9. Overall bit rate mode : Variable

  10. Overall bit rate : 23.0 Mb/s

  11. Encoded date : UTC 2021-09-25 12:14:52

  12. Writing application : mkvmerge v44.0.0 ('Domino') 64-bit

  13. Writing library : libebml v1.3.10 + libmatroska v1.5.2


  14. Video

  15. ID : 1

  16. Format : AVC

  17. Format/Info : Advanced Video Codec

  18. Format profile : [email protected]

  19. Format settings : CABAC / 3 Ref Frames

  20. Format settings, CABAC : Yes

  21. Format settings, Reference frames : 3 frames

  22. Codec ID : V_MPEG4/ISO/AVC

  23. Duration : 1 h 31 min

  24. Bit rate mode : Variable

  25. Bit rate : 3 159 kb/s

  26. Nominal bit rate : 2 780 kb/s

  27. Maximum bit rate : 5 220 kb/s

  28. Width : 1 920 pixels

  29. Height : 1 080 pixels

  30. Display aspect ratio : 16:9

  31. Frame rate mode : Constant

  32. Frame rate : 24.000 FPS

  33. Color space : YUV

  34. Chroma subsampling : 4:2:0

  35. Bit depth : 8 bits

  36. Scan type : Progressive

  37. Bits/(Pixel*Frame) : 0.063

  38. Stream size : 2.02 GiB (14%)

  39. Writing library : x264 core 148 r2722 1b0121b

  40. Encoding settings : cabac=1 / ref=3 / deblock=1:0:0 / analyse=0x1:0x111 / me=umh / subme=10 / psy=1 / psy_rd=1.00:0.00 / mixed_ref=1 / me_range=24 / chroma_me=1 / trellis=2 / 8x8dct=0 / cqm=0 / deadzone=21,11 / fast_pskip=1 / chroma_qp_offset=-2 / threads=8 / lookahead_threads=1 / sliced_threads=0 / nr=0 / decimate=1 / interlaced=0 / NTMzNTQ= / bluray_compat=0 / stitchable=1 / constrained_intra=0 / bframes=2 / b_pyramid=0 / b_adapt=2 / b_bias=0 / direct=3 / weightb=1 / open_gop=0 / weightp=2 / keyint=250 / keyint_min=24 / scenecut=0 / intra_refresh=0 / rc_lookahead=48 / rc=2pass / mbtree=1 / bitrate=2780 / ratetol=1.0 / qcomp=0.50 / qpmin=6 / qpmax=51 / qpstep=4 / cplxblur=20.0 / qblur=0.5 / vbv_maxrate=5220 / vbv_bufsize=6960 / nal_hrd=vbr / filler=0 / NTMzNTQ=LmsMAP37EqsCpk / ip_ratio=1.40 / aq=1:1.00

  41. Default : Yes

  42. Forced : No


  43. Audio #1

  44. ID : 2

  45. Format : E-AC-3

  46. Format/Info : Enhanced AC-3

  47. Commercial name : Dolby Digital Plus

  48. Codec ID : A_EAC3

  49. Duration : 1 h 31 min

  50. Bit rate mode : Constant

  51. Bit rate : 640 kb/s

  52. Channel(s) : 6 channels

  53. Channel layout : L R C LFE Ls Rs

  54. Sampling rate : 48.0 kHz

  55. Frame rate : 31.250 FPS (1536 SPF)

  56. Compression mode : Lossy

  57. Stream size : 419 MiB (3%)

  58. Title : English

  59. Language : English

  60. Service kind : Complete Main

  61. Default : Yes

  62. Forced : No


  63. Audio #2

  64. ID : 3

  65. Format : E-AC-3

  66. Format/Info : Enhanced AC-3

  67. Commercial name : Dolby Digital Plus

  68. Codec ID : A_EAC3

  69. Duration : 1 h 31 min

  70. Bit rate mode : Constant

  71. Bit rate : 640 kb/s

  72. Channel(s) : 6 channels

  73. Channel layout : L R C LFE Ls Rs

  74. Sampling rate : 48.0 kHz

  75. Frame rate : 31.250 FPS (1536 SPF)

  76. Compression mode : Lossy

  77. Stream size : 419 MiB (3%)

  78. Title : Arabic

  79. Language : Arabic

  80. Service kind : Complete Main

  81. Default : No

  82. Forced : No


  83. Audio #3

  84. ID : 4

  85. Format : E-AC-3

  86. Format/Info : Enhanced AC-3

  87. Commercial name : Dolby Digital Plus

  88. Codec ID : A_EAC3

  89. Duration : 1 h 31 min

  90. Bit rate mode : Constant

  91. Bit rate : 640 kb/s

  92. Channel(s) : 6 channels

  93. Channel layout : L R C LFE Ls Rs

  94. Sampling rate : 48.0 kHz

  95. Frame rate : 31.250 FPS (1536 SPF)

  96. Compression mode : Lossy

  97. Stream size : 419 MiB (3%)

  98. Title : Croatian

  99. Language : Croatian

  100. Service kind : Complete Main

  101. Default : No

  102. Forced : No


  103. Audio #4

  104. ID : 5

  105. Format : E-AC-3

  106. Format/Info : Enhanced AC-3

  107. Commercial name : Dolby Digital Plus

  108. Codec ID : A_EAC3

  109. Duration : 1 h 31 min

  110. Bit rate mode : Constant

  111. Bit rate : 640 kb/s

  112. Channel(s) : 6 channels

  113. Channel layout : L R C LFE Ls Rs

  114. Sampling rate : 48.0 kHz

  115. Frame rate : 31.250 FPS (1536 SPF)

  116. Compression mode : Lossy

  117. Stream size : 419 MiB (3%)

  118. Title : Czech

  119. Language : Czech

  120. Service kind : Complete Main

  121. Default : No

  122. Forced : No


  123. Audio #5

  124. ID : 6

  125. Format : E-AC-3

  126. Format/Info : Enhanced AC-3

  127. Commercial name : Dolby Digital Plus

  128. Codec ID : A_EAC3

  129. Duration : 1 h 31 min

  130. Bit rate mode : Constant

  131. Bit rate : 640 kb/s

  132. Channel(s) : 6 channels

  133. Channel layout : L R C LFE Ls Rs

  134. Sampling rate : 48.0 kHz

  135. Frame rate : 31.250 FPS (1536 SPF)

  136. Compression mode : Lossy

  137. Stream size : 419 MiB (3%)

  138. Title : Danish

  139. Language : Danish

  140. Service kind : Complete Main

  141. Default : No

  142. Forced : No


  143. Audio #6

  144. ID : 7

  145. Format : E-AC-3

  146. Format/Info : Enhanced AC-3

  147. Commercial name : Dolby Digital Plus

  148. Codec ID : A_EAC3

  149. Duration : 1 h 31 min

  150. Bit rate mode : Constant

  151. Bit rate : 640 kb/s

  152. Channel(s) : 6 channels

  153. Channel layout : L R C LFE Ls Rs

  154. Sampling rate : 48.0 kHz

  155. Frame rate : 31.250 FPS (1536 SPF)

  156. Compression mode : Lossy

  157. Stream size : 419 MiB (3%)

  158. Title : Dutch

  159. Language : Dutch

  160. Service kind : Complete Main

  161. Default : No

  162. Forced : No


  163. Audio #7

  164. ID : 8

  165. Format : E-AC-3

  166. Format/Info : Enhanced AC-3

  167. Commercial name : Dolby Digital Plus

  168. Codec ID : A_EAC3

  169. Duration : 1 h 31 min

  170. Bit rate mode : Constant

  171. Bit rate : 640 kb/s

  172. Channel(s) : 6 channels

  173. Channel layout : L R C LFE Ls Rs

  174. Sampling rate : 48.0 kHz

  175. Frame rate : 31.250 FPS (1536 SPF)

  176. Compression mode : Lossy

  177. Stream size : 419 MiB (3%)

  178. Title : Finnish

  179. Language : Finnish

  180. Service kind : Complete Main

  181. Default : No

  182. Forced : No


  183. Audio #8

  184. ID : 9

  185. Format : E-AC-3

  186. Format/Info : Enhanced AC-3

  187. Commercial name : Dolby Digital Plus

  188. Codec ID : A_EAC3

  189. Duration : 1 h 31 min

  190. Bit rate mode : Constant

  191. Bit rate : 640 kb/s

  192. Channel(s) : 6 channels

  193. Channel layout : L R C LFE Ls Rs

  194. Sampling rate : 48.0 kHz

  195. Frame rate : 31.250 FPS (1536 SPF)

  196. Compression mode : Lossy

  197. Stream size : 419 MiB (3%)

  198. Title : French

  199. Language : French

  200. Service kind : Complete Main

  201. Default : No

  202. Forced : No


  203. Audio #9

  204. ID : 10

  205. Format : E-AC-3

  206. Format/Info : Enhanced AC-3

  207. Commercial name : Dolby Digital Plus

  208. Codec ID : A_EAC3

  209. Duration : 1 h 31 min

  210. Bit rate mode : Constant

  211. Bit rate : 640 kb/s

  212. Channel(s) : 6 channels

  213. Channel layout : L R C LFE Ls Rs

  214. Sampling rate : 48.0 kHz

  215. Frame rate : 31.250 FPS (1536 SPF)

  216. Compression mode : Lossy

  217. Stream size : 419 MiB (3%)

  218. Title : German

  219. Language : German

  220. Service kind : Complete Main

  221. Default : No

  222. Forced : No


  223. Audio #10

  224. ID : 11

  225. Format : E-AC-3

  226. Format/Info : Enhanced AC-3

  227. Commercial name : Dolby Digital Plus

  228. Codec ID : A_EAC3

  229. Duration : 1 h 31 min

  230. Bit rate mode : Constant

  231. Bit rate : 640 kb/s

  232. Channel(s) : 6 channels

  233. Channel layout : L R C LFE Ls Rs

  234. Sampling rate : 48.0 kHz

  235. Frame rate : 31.250 FPS (1536 SPF)

  236. Compression mode : Lossy

  237. Stream size : 419 MiB (3%)

  238. Title : Greek

  239. Language : Greek

  240. Service kind : Complete Main

  241. Default : No

  242. Forced : No


  243. Audio #11

  244. ID : 12

  245. Format : E-AC-3

  246. Format/Info : Enhanced AC-3

  247. Commercial name : Dolby Digital Plus

  248. Codec ID : A_EAC3

  249. Duration : 1 h 31 min

  250. Bit rate mode : Constant

  251. Bit rate : 640 kb/s

  252. Channel(s) : 6 channels

  253. Channel layout : L R C LFE Ls Rs

  254. Sampling rate : 48.0 kHz

  255. Frame rate : 31.250 FPS (1536 SPF)

  256. Compression mode : Lossy

  257. Stream size : 419 MiB (3%)

  258. Title : Hebrew

  259. Language : Hebrew

  260. Service kind : Complete Main

  261. Default : No

  262. Forced : No


  263. Audio #12

  264. ID : 13

  265. Format : E-AC-3

  266. Format/Info : Enhanced AC-3

  267. Commercial name : Dolby Digital Plus

  268. Codec ID : A_EAC3

  269. Duration : 1 h 31 min

  270. Bit rate mode : Constant

  271. Bit rate : 640 kb/s

  272. Channel(s) : 6 channels

  273. Channel layout : L R C LFE Ls Rs

  274. Sampling rate : 48.0 kHz

  275. Frame rate : 31.250 FPS (1536 SPF)

  276. Compression mode : Lossy

  277. Stream size : 419 MiB (3%)

  278. Title : Hindi

  279. Language : Hindi

  280. Service kind : Complete Main

  281. Default : No

  282. Forced : No


  283. Audio #13

  284. ID : 14

  285. Format : E-AC-3

  286. Format/Info : Enhanced AC-3

  287. Commercial name : Dolby Digital Plus

  288. Codec ID : A_EAC3

  289. Duration : 1 h 31 min

  290. Bit rate mode : Constant

  291. Bit rate : 640 kb/s

  292. Channel(s) : 6 channels

  293. Channel layout : L R C LFE Ls Rs

  294. Sampling rate : 48.0 kHz

  295. Frame rate : 31.250 FPS (1536 SPF)

  296. Compression mode : Lossy

  297. Stream size : 419 MiB (3%)

  298. Title : Hungarian

  299. Language : Hungarian

  300. Service kind : Complete Main

  301. Default : No

  302. Forced : No


  303. Audio #14

  304. ID : 15

  305. Format : E-AC-3

  306. Format/Info : Enhanced AC-3

  307. Commercial name : Dolby Digital Plus

  308. Codec ID : A_EAC3

  309. Duration : 1 h 31 min

  310. Bit rate mode : Constant

  311. Bit rate : 640 kb/s

  312. Channel(s) : 6 channels

  313. Channel layout : L R C LFE Ls Rs

  314. Sampling rate : 48.0 kHz

  315. Frame rate : 31.250 FPS (1536 SPF)

  316. Compression mode : Lossy

  317. Stream size : 419 MiB (3%)

  318. Title : Indonesian

  319. Language : Indonesian

  320. Service kind : Complete Main

  321. Default : No

  322. Forced : No


  323. Audio #15

  324. ID : 16

  325. Format : E-AC-3

  326. Format/Info : Enhanced AC-3

  327. Commercial name : Dolby Digital Plus

  328. Codec ID : A_EAC3

  329. Duration : 1 h 31 min

  330. Bit rate mode : Constant

  331. Bit rate : 640 kb/s

  332. Channel(s) : 6 channels

  333. Channel layout : L R C LFE Ls Rs

  334. Sampling rate : 48.0 kHz

  335. Frame rate : 31.250 FPS (1536 SPF)

  336. Compression mode : Lossy

  337. Stream size : 419 MiB (3%)

  338. Title : Italian

  339. Language : Italian

  340. Service kind : Complete Main

  341. Default : No

  342. Forced : No


  343. Audio #16

  344. ID : 17

  345. Format : E-AC-3

  346. Format/Info : Enhanced AC-3

  347. Commercial name : Dolby Digital Plus

  348. Codec ID : A_EAC3

  349. Duration : 1 h 31 min

  350. Bit rate mode : Constant

  351. Bit rate : 640 kb/s

  352. Channel(s) : 6 channels

  353. Channel layout : L R C LFE Ls Rs

  354. Sampling rate : 48.0 kHz

  355. Frame rate : 31.250 FPS (1536 SPF)

  356. Compression mode : Lossy

  357. Stream size : 419 MiB (3%)

  358. Title : Japanese

  359. Language : Japanese

  360. Service kind : Complete Main

  361. Default : No

  362. Forced : No


  363. Audio #17

  364. ID : 18

  365. Format : E-AC-3

  366. Format/Info : Enhanced AC-3

  367. Commercial name : Dolby Digital Plus

  368. Codec ID : A_EAC3

  369. Duration : 1 h 31 min

  370. Bit rate mode : Constant

  371. Bit rate : 640 kb/s

  372. Channel(s) : 6 channels

  373. Channel layout : L R C LFE Ls Rs

  374. Sampling rate : 48.0 kHz

  375. Frame rate : 31.250 FPS (1536 SPF)

  376. Compression mode : Lossy

  377. Stream size : 419 MiB (3%)

  378. Title : Korean

  379. Language : Korean

  380. Service kind : Complete Main

  381. Default : No

  382. Forced : No


  383. Audio #18

  384. ID : 19

  385. Format : E-AC-3

  386. Format/Info : Enhanced AC-3

  387. Commercial name : Dolby Digital Plus

  388. Codec ID : A_EAC3

  389. Duration : 1 h 31 min

  390. Bit rate mode : Constant

  391. Bit rate : 640 kb/s

  392. Channel(s) : 6 channels

  393. Channel layout : L R C LFE Ls Rs

  394. Sampling rate : 48.0 kHz

  395. Frame rate : 31.250 FPS (1536 SPF)

  396. Compression mode : Lossy

  397. Stream size : 419 MiB (3%)

  398. Title : Malay

  399. Language : Malay

  400. Service kind : Complete Main

  401. Default : No

  402. Forced : No


  403. Audio #19

  404. ID : 20

  405. Format : E-AC-3

  406. Format/Info : Enhanced AC-3

  407. Commercial name : Dolby Digital Plus

  408. Codec ID : A_EAC3

  409. Duration : 1 h 31 min

  410. Bit rate mode : Constant

  411. Bit rate : 640 kb/s

  412. Channel(s) : 6 channels

  413. Channel layout : L R C LFE Ls Rs

  414. Sampling rate : 48.0 kHz

  415. Frame rate : 31.250 FPS (1536 SPF)

  416. Compression mode : Lossy

  417. Stream size : 419 MiB (3%)

  418. Title : Mandarin

  419. Language : Chinese

  420. Service kind : Complete Main

  421. Default : No

  422. Forced : No


  423. Audio #20

  424. ID : 21

  425. Format : E-AC-3

  426. Format/Info : Enhanced AC-3

  427. Commercial name : Dolby Digital Plus

  428. Codec ID : A_EAC3

  429. Duration : 1 h 31 min

  430. Bit rate mode : Constant

  431. Bit rate : 640 kb/s

  432. Channel(s) : 6 channels

  433. Channel layout : L R C LFE Ls Rs

  434. Sampling rate : 48.0 kHz

  435. Frame rate : 31.250 FPS (1536 SPF)

  436. Compression mode : Lossy

  437. Stream size : 419 MiB (3%)

  438. Title : Norwegian

  439. Language : Norwegian

  440. Service kind : Complete Main

  441. Default : No

  442. Forced : No


  443. Audio #21

  444. ID : 22

  445. Format : E-AC-3

  446. Format/Info : Enhanced AC-3

  447. Commercial name : Dolby Digital Plus

  448. Codec ID : A_EAC3

  449. Duration : 1 h 31 min

  450. Bit rate mode : Constant

  451. Bit rate : 640 kb/s

  452. Channel(s) : 6 channels

  453. Channel layout : L R C LFE Ls Rs

  454. Sampling rate : 48.0 kHz

  455. Frame rate : 31.250 FPS (1536 SPF)

  456. Compression mode : Lossy

  457. Stream size : 419 MiB (3%)

  458. Title : Polish

  459. Language : Polish

  460. Service kind : Complete Main

  461. Default : No

  462. Forced : No


  463. Audio #22

  464. ID : 23

  465. Format : E-AC-3

  466. Format/Info : Enhanced AC-3

  467. Commercial name : Dolby Digital Plus

  468. Codec ID : A_EAC3

  469. Duration : 1 h 31 min

  470. Bit rate mode : Constant

  471. Bit rate : 640 kb/s

  472. Channel(s) : 6 channels

  473. Channel layout : L R C LFE Ls Rs

  474. Sampling rate : 48.0 kHz

  475. Frame rate : 31.250 FPS (1536 SPF)

  476. Compression mode : Lossy

  477. Stream size : 419 MiB (3%)

  478. Title : Portuguese

  479. Language : Portuguese

  480. Service kind : Complete Main

  481. Default : No

  482. Forced : No


  483. Audio #23

  484. ID : 24

  485. Format : E-AC-3

  486. Format/Info : Enhanced AC-3

  487. Commercial name : Dolby Digital Plus

  488. Codec ID : A_EAC3

  489. Duration : 1 h 31 min

  490. Bit rate mode : Constant

  491. Bit rate : 640 kb/s

  492. Channel(s) : 6 channels

  493. Channel layout : L R C LFE Ls Rs

  494. Sampling rate : 48.0 kHz

  495. Frame rate : 31.250 FPS (1536 SPF)

  496. Compression mode : Lossy

  497. Stream size : 419 MiB (3%)

  498. Title : Brazilian Portuguese

  499. Language : Portuguese

  500. Service kind : Complete Main

  501. Default : No

  502. Forced : No


  503. Audio #24

  504. ID : 25

  505. Format : E-AC-3

  506. Format/Info : Enhanced AC-3

  507. Commercial name : Dolby Digital Plus

  508. Codec ID : A_EAC3

  509. Duration : 1 h 31 min

  510. Bit rate mode : Constant

  511. Bit rate : 640 kb/s

  512. Channel(s) : 6 channels

  513. Channel layout : L R C LFE Ls Rs

  514. Sampling rate : 48.0 kHz

  515. Frame rate : 31.250 FPS (1536 SPF)

  516. Compression mode : Lossy

  517. Stream size : 419 MiB (3%)

  518. Title : Romanian

  519. Language : Romanian

  520. Service kind : Complete Main

  521. Default : No

  522. Forced : No


  523. Audio #25

  524. ID : 26

  525. Format : E-AC-3

  526. Format/Info : Enhanced AC-3

  527. Commercial name : Dolby Digital Plus

  528. Codec ID : A_EAC3

  529. Duration : 1 h 31 min

  530. Bit rate mode : Constant

  531. Bit rate : 640 kb/s

  532. Channel(s) : 6 channels

  533. Channel layout : L R C LFE Ls Rs

  534. Sampling rate : 48.0 kHz

  535. Frame rate : 31.250 FPS (1536 SPF)

  536. Compression mode : Lossy

  537. Stream size : 419 MiB (3%)

  538. Title : Russian

  539. Language : Russian

  540. Service kind : Complete Main

  541. Default : No

  542. Forced : No


  543. Audio #26

  544. ID : 27

  545. Format : E-AC-3

  546. Format/Info : Enhanced AC-3

  547. Commercial name : Dolby Digital Plus

  548. Codec ID : A_EAC3

  549. Duration : 1 h 31 min

  550. Bit rate mode : Constant

  551. Bit rate : 640 kb/s

  552. Channel(s) : 6 channels

  553. Channel layout : L R C LFE Ls Rs

  554. Sampling rate : 48.0 kHz

  555. Frame rate : 31.250 FPS (1536 SPF)

  556. Compression mode : Lossy

  557. Stream size : 419 MiB (3%)

  558. Title : Spanish

  559. Language : Spanish

  560. Service kind : Complete Main

  561. Default : No

  562. Forced : No


  563. Audio #27

  564. ID : 28

  565. Format : E-AC-3

  566. Format/Info : Enhanced AC-3

  567. Commercial name : Dolby Digital Plus

  568. Codec ID : A_EAC3

  569. Duration : 1 h 31 min

  570. Bit rate mode : Constant

  571. Bit rate : 640 kb/s

  572. Channel(s) : 6 channels

  573. Channel layout : L R C LFE Ls Rs

  574. Sampling rate : 48.0 kHz

  575. Frame rate : 31.250 FPS (1536 SPF)

  576. Compression mode : Lossy

  577. Stream size : 419 MiB (3%)

  578. Title : European Spanish

  579. Language : Spanish

  580. Service kind : Complete Main

  581. Default : No

  582. Forced : No


  583. Audio #28

  584. ID : 29

  585. Format : E-AC-3

  586. Format/Info : Enhanced AC-3

  587. Commercial name : Dolby Digital Plus

  588. Codec ID : A_EAC3

  589. Duration : 1 h 31 min

  590. Bit rate mode : Constant

  591. Bit rate : 640 kb/s

  592. Channel(s) : 6 channels

  593. Channel layout : L R C LFE Ls Rs

  594. Sampling rate : 48.0 kHz

  595. Frame rate : 31.250 FPS (1536 SPF)

  596. Compression mode : Lossy

  597. Stream size : 419 MiB (3%)

  598. Title : Swedish

  599. Language : Swedish

  600. Service kind : Complete Main

  601. Default : No

  602. Forced : No


  603. Audio #29

  604. ID : 30

  605. Format : E-AC-3

  606. Format/Info : Enhanced AC-3

  607. Commercial name : Dolby Digital Plus

  608. Codec ID : A_EAC3

  609. Duration : 1 h 31 min

  610. Bit rate mode : Constant

  611. Bit rate : 640 kb/s

  612. Channel(s) : 6 channels

  613. Channel layout : L R C LFE Ls Rs

  614. Sampling rate : 48.0 kHz

  615. Frame rate : 31.250 FPS (1536 SPF)

  616. Compression mode : Lossy

  617. Stream size : 419 MiB (3%)

  618. Title : Thai

  619. Language : Thai

  620. Service kind : Complete Main

  621. Default : No

  622. Forced : No


  623. Audio #30

  624. ID : 31

  625. Format : E-AC-3

  626. Format/Info : Enhanced AC-3

  627. Commercial name : Dolby Digital Plus

  628. Codec ID : A_EAC3

  629. Duration : 1 h 31 min

  630. Bit rate mode : Constant

  631. Bit rate : 640 kb/s

  632. Channel(s) : 6 channels

  633. Channel layout : L R C LFE Ls Rs

  634. Sampling rate : 48.0 kHz

  635. Frame rate : 31.250 FPS (1536 SPF)

  636. Compression mode : Lossy

  637. Stream size : 419 MiB (3%)

  638. Title : Turkish

  639. Language : Turkish

  640. Service kind : Complete Main

  641. Default : No

  642. Forced : No


  643. Audio #31

  644. ID : 32

  645. Format : E-AC-3

  646. Format/Info : Enhanced AC-3

  647. Commercial name : Dolby Digital Plus

  648. Codec ID : A_EAC3

  649. Duration : 1 h 31 min

  650. Bit rate mode : Constant

  651. Bit rate : 640 kb/s

  652. Channel(s) : 6 channels

  653. Channel layout : L R C LFE Ls Rs

  654. Sampling rate : 48.0 kHz

  655. Frame rate : 31.250 FPS (1536 SPF)

  656. Compression mode : Lossy

  657. Stream size : 419 MiB (3%)

  658. Title : Vietnamese

  659. Language : Vietnamese

  660. Service kind : Complete Main

  661. Default : No

  662. Forced : No


  663. Text #1

  664. ID : 33

  665. Format : UTF-8

  666. Codec ID : S_TEXT/UTF8

  667. Codec ID/Info : UTF-8 Plain Text

  668. Duration : 1 h 27 min

  669. Bit rate : 102 b/s

  670. Count of elements : 1722

  671. Stream size : 65.2 KiB (0%)

  672. Title : English

  673. Language : English

  674. Default : Yes

  675. Forced : No


  676. Text #2

  677. ID : 34

  678. Format : UTF-8

  679. Codec ID : S_TEXT/UTF8

  680. Codec ID/Info : UTF-8 Plain Text

  681. Duration : 1 h 25 min

  682. Bit rate : 119 b/s

  683. Count of elements : 1387

  684. Stream size : 74.7 KiB (0%)

  685. Title : Arabic

  686. Language : Arabic

  687. Default : No

  688. Forced : No


  689. Text #3

  690. ID : 35

  691. Format : UTF-8

  692. Codec ID : S_TEXT/UTF8

  693. Codec ID/Info : UTF-8 Plain Text

  694. Duration : 1 h 29 min

  695. Bit rate : 69 b/s

  696. Count of elements : 1393

  697. Stream size : 45.4 KiB (0%)

  698. Title : Chinese Simplified

  699. Language : Chinese

  700. Default : No

  701. Forced : No


  702. Text #4

  703. ID : 36

  704. Format : UTF-8

  705. Codec ID : S_TEXT/UTF8

  706. Codec ID/Info : UTF-8 Plain Text

  707. Duration : 1 h 29 min

  708. Bit rate : 65 b/s

  709. Count of elements : 1432

  710. Stream size : 43.2 KiB (0%)

  711. Title : Chinese Traditional

  712. Language : Chinese

  713. Default : No

  714. Forced : No


  715. Text #5

  716. ID : 37

  717. Format : UTF-8

  718. Codec ID : S_TEXT/UTF8

  719. Codec ID/Info : UTF-8 Plain Text

  720. Duration : 1 h 29 min

  721. Bit rate : 54 b/s

  722. Count of elements : 1370

  723. Stream size : 36.1 KiB (0%)

  724. Title : Croatian

  725. Language : Croatian

  726. Default : No

  727. Forced : No


  728. Text #6

  729. ID : 38

  730. Format : UTF-8

  731. Codec ID : S_TEXT/UTF8

  732. Codec ID/Info : UTF-8 Plain Text

  733. Duration : 1 h 29 min

  734. Bit rate : 58 b/s

  735. Count of elements : 1393

  736. Stream size : 38.3 KiB (0%)

  737. Title : Czech

  738. Language : Czech

  739. Default : No

  740. Forced : No


  741. Text #7

  742. ID : 39

  743. Format : UTF-8

  744. Codec ID : S_TEXT/UTF8

  745. Codec ID/Info : UTF-8 Plain Text

  746. Duration : 1 h 29 min

  747. Bit rate : 56 b/s

  748. Count of elements : 1174

  749. Stream size : 37.2 KiB (0%)

  750. Title : Danish

  751. Language : Danish

  752. Default : No

  753. Forced : No


  754. Text #8

  755. ID : 40

  756. Format : UTF-8

  757. Codec ID : S_TEXT/UTF8

  758. Codec ID/Info : UTF-8 Plain Text

  759. Duration : 1 h 29 min

  760. Bit rate : 58 b/s

  761. Count of elements : 982

  762. Stream size : 38.4 KiB (0%)

  763. Title : Dutch

  764. Language : Dutch

  765. Default : No

  766. Forced : No


  767. Text #9

  768. ID : 41

  769. Format : UTF-8

  770. Codec ID : S_TEXT/UTF8

  771. Codec ID/Info : UTF-8 Plain Text

  772. Duration : 1 h 29 min

  773. Bit rate : 59 b/s

  774. Count of elements : 1163

  775. Stream size : 39.4 KiB (0%)

  776. Title : Finnish

  777. Language : Finnish

  778. Default : No

  779. Forced : No


  780. Text #10

  781. ID : 42

  782. Format : UTF-8

  783. Codec ID : S_TEXT/UTF8

  784. Codec ID/Info : UTF-8 Plain Text

  785. Duration : 1 h 29 min

  786. Bit rate : 61 b/s

  787. Count of elements : 1233

  788. Stream size : 40.3 KiB (0%)

  789. Title : French

  790. Language : French

  791. Default : No

  792. Forced : No


  793. Text #11

  794. ID : 43

  795. Format : UTF-8

  796. Codec ID : S_TEXT/UTF8

  797. Codec ID/Info : UTF-8 Plain Text

  798. Duration : 1 h 29 min

  799. Bit rate : 60 b/s

  800. Count of elements : 1182

  801. Stream size : 40.0 KiB (0%)

  802. Title : German

  803. Language : German

  804. Default : No

  805. Forced : No


  806. Text #12

  807. ID : 44

  808. Format : UTF-8

  809. Codec ID : S_TEXT/UTF8

  810. Codec ID/Info : UTF-8 Plain Text

  811. Duration : 1 h 29 min

  812. Bit rate : 95 b/s

  813. Count of elements : 1364

  814. Stream size : 62.6 KiB (0%)

  815. Title : Greek

  816. Language : Greek

  817. Default : No

  818. Forced : No


  819. Text #13

  820. ID : 45

  821. Format : UTF-8

  822. Codec ID : S_TEXT/UTF8

  823. Codec ID/Info : UTF-8 Plain Text

  824. Duration : 1 h 29 min

  825. Bit rate : 91 b/s

  826. Count of elements : 1359

  827. Stream size : 60.0 KiB (0%)

  828. Title : Hebrew

  829. Language : Hebrew

  830. Default : No

  831. Forced : No


  832. Text #14

  833. ID : 46

  834. Format : UTF-8

  835. Codec ID : S_TEXT/UTF8

  836. Codec ID/Info : UTF-8 Plain Text

  837. Duration : 1 h 29 min

  838. Bit rate : 61 b/s

  839. Count of elements : 1393

  840. Stream size : 40.7 KiB (0%)

  841. Title : Hungarian

  842. Language : Hungarian

  843. Default : No

  844. Forced : No


  845. Text #15

  846. ID : 47

  847. Format : UTF-8

  848. Codec ID : S_TEXT/UTF8

  849. Codec ID/Info : UTF-8 Plain Text

  850. Duration : 1 h 29 min

  851. Bit rate : 64 b/s

  852. Count of elements : 1394

  853. Stream size : 42.2 KiB (0%)

  854. Title : Indonesian

  855. Language : Indonesian

  856. Default : No

  857. Forced : No


  858. Text #16

  859. ID : 48

  860. Format : UTF-8

  861. Codec ID : S_TEXT/UTF8

  862. Codec ID/Info : UTF-8 Plain Text

  863. Duration : 1 h 29 min

  864. Bit rate : 55 b/s

  865. Count of elements : 1230

  866. Stream size : 36.5 KiB (0%)

  867. Title : Italian

  868. Language : Italian

  869. Default : No

  870. Forced : No


  871. Text #17

  872. ID : 49

  873. Format : UTF-8

  874. Codec ID : S_TEXT/UTF8

  875. Codec ID/Info : UTF-8 Plain Text

  876. Duration : 1 h 29 min

  877. Bit rate : 67 b/s

  878. Count of elements : 1420

  879. Stream size : 44.0 KiB (0%)

  880. Title : Japanese

  881. Language : Japanese

  882. Default : No

  883. Forced : No


  884. Text #18

  885. ID : 50

  886. Format : UTF-8

  887. Codec ID : S_TEXT/UTF8

  888. Codec ID/Info : UTF-8 Plain Text

  889. Duration : 1 h 29 min

  890. Bit rate : 82 b/s

  891. Count of elements : 1392

  892. Stream size : 53.9 KiB (0%)

  893. Title : Korean

  894. Language : Korean

  895. Default : No

  896. Forced : No


  897. Text #19

  898. ID : 51

  899. Format : UTF-8

  900. Codec ID : S_TEXT/UTF8

  901. Codec ID/Info : UTF-8 Plain Text

  902. Duration : 1 h 29 min

  903. Bit rate : 61 b/s

  904. Count of elements : 1376

  905. Stream size : 40.6 KiB (0%)

  906. Title : Malay

  907. Language : Malay

  908. Default : No

  909. Forced : No


  910. Text #20

  911. ID : 52

  912. Format : UTF-8

  913. Codec ID : S_TEXT/UTF8

  914. Codec ID/Info : UTF-8 Plain Text

  915. Duration : 1 h 29 min

  916. Bit rate : 56 b/s

  917. Count of elements : 980

  918. Stream size : 37.2 KiB (0%)

  919. Title : Norwegian Bokmal

  920. Language : Norwegian Bokmal

  921. Default : No

  922. Forced : No


  923. Text #21

  924. ID : 53

  925. Format : UTF-8

  926. Codec ID : S_TEXT/UTF8

  927. Codec ID/Info : UTF-8 Plain Text

  928. Duration : 1 h 29 min

  929. Bit rate : 50 b/s

  930. Count of elements : 1370

  931. Stream size : 32.9 KiB (0%)

  932. Title : Polish

  933. Language : Polish

  934. Default : No

  935. Forced : No


  936. Text #22

  937. ID : 54

  938. Format : UTF-8

  939. Codec ID : S_TEXT/UTF8

  940. Codec ID/Info : UTF-8 Plain Text

  941. Duration : 1 h 29 min

  942. Bit rate : 61 b/s

  943. Count of elements : 1341

  944. Stream size : 40.4 KiB (0%)

  945. Title : Portuguese

  946. Language : Portuguese

  947. Default : No

  948. Forced : No


  949. Text #23

  950. ID : 55

  951. Format : UTF-8

  952. Codec ID : S_TEXT/UTF8

  953. Codec ID/Info : UTF-8 Plain Text

  954. Duration : 1 h 29 min

  955. Bit rate : 58 b/s

  956. Count of elements : 1198

  957. Stream size : 38.3 KiB (0%)

  958. Title : Brazilian Portuguese

  959. Language : Portuguese

  960. Default : No

  961. Forced : No


  962. Text #24

  963. ID : 56

  964. Format : UTF-8

  965. Codec ID : S_TEXT/UTF8

  966. Codec ID/Info : UTF-8 Plain Text

  967. Duration : 1 h 29 min

  968. Bit rate : 71 b/s

  969. Count of elements : 1327

  970. Stream size : 46.7 KiB (0%)

  971. Title : Romanian

  972. Language : Romanian

  973. Default : No

  974. Forced : No


  975. Text #25

  976. ID : 57

  977. Format : UTF-8

  978. Codec ID : S_TEXT/UTF8

  979. Codec ID/Info : UTF-8 Plain Text

  980. Duration : 1 h 29 min

  981. Bit rate : 88 b/s

  982. Count of elements : 1382

  983. Stream size : 57.9 KiB (0%)

  984. Title : Russian

  985. Language : Russian

  986. Default : No

  987. Forced : No


  988. Text #26

  989. ID : 58

  990. Format : UTF-8

  991. Codec ID : S_TEXT/UTF8

  992. Codec ID/Info : UTF-8 Plain Text

  993. Duration : 1 h 29 min

  994. Bit rate : 60 b/s

  995. Count of elements : 1352

  996. Stream size : 39.4 KiB (0%)

  997. Title : Spanish

  998. Language : Spanish

  999. Default : No

  1000. Forced : No


  1001. Text #27

  1002. ID : 59

  1003. Format : UTF-8

  1004. Codec ID : S_TEXT/UTF8

  1005. Codec ID/Info : UTF-8 Plain Text

  1006. Duration : 1 h 29 min

  1007. Bit rate : 57 b/s

  1008. Count of elements : 1292

  1009. Stream size : 37.7 KiB (0%)

  1010. Title : European Spanish

  1011. Language : Spanish

  1012. Default : No

  1013. Forced : No


  1014. Text #28

  1015. ID : 60

  1016. Format : UTF-8

  1017. Codec ID : S_TEXT/UTF8

  1018. Codec ID/Info : UTF-8 Plain Text

  1019. Duration : 1 h 29 min

  1020. Bit rate : 65 b/s

  1021. Count of elements : 1393

  1022. Stream size : 42.7 KiB (0%)

  1023. Title : Swedish

  1024. Language : Swedish

  1025. Default : No

  1026. Forced : No


  1027. Text #29

  1028. ID : 61

  1029. Format : UTF-8

  1030. Codec ID : S_TEXT/UTF8

  1031. Codec ID/Info : UTF-8 Plain Text

  1032. Duration : 1 h 29 min

  1033. Bit rate : 155 b/s

  1034. Count of elements : 1393

  1035. Stream size : 102 KiB (0%)

  1036. Title : Thai

  1037. Language : Thai

  1038. Default : No

  1039. Forced : No


  1040. Text #30

  1041. ID : 62

  1042. Format : UTF-8

  1043. Codec ID : S_TEXT/UTF8

  1044. Codec ID/Info : UTF-8 Plain Text

  1045. Duration : 1 h 29 min

  1046. Bit rate : 55 b/s

  1047. Count of elements : 1334

  1048. Stream size : 36.7 KiB (0%)

  1049. Title : Turkish

  1050. Language : Turkish

  1051. Default : No

  1052. Forced : No


  1053. Text #31

  1054. ID : 63

  1055. Format : UTF-8

  1056. Codec ID : S_TEXT/UTF8

  1057. Codec ID/Info : UTF-8 Plain Text

  1058. Duration : 1 h 29 min

  1059. Bit rate : 85 b/s

  1060. Count of elements : 1394

  1061. Stream size : 56.0 KiB (0%)

  1062. Title : Ukrainian

  1063. Language : Ukrainian

  1064. Default : No

  1065. Forced : No


  1066. Text #32

  1067. ID : 64

  1068. Format : UTF-8

  1069. Codec ID : S_TEXT/UTF8

  1070. Codec ID/Info : UTF-8 Plain Text

  1071. Duration : 1 h 29 min

  1072. Bit rate : 83 b/s

  1073. Count of elements : 1377

  1074. Stream size : 54.6 KiB (0%)

  1075. Title : Vietnamese

  1076. Language : Vietnamese

  1077. Default : No

  1078. Forced : No


文件下载


除非特别注明,本文『小马宝莉:新世代[国语配音/中文字幕].My.Little.Pony.A.New.Generation.2021.1080p.NF.WEB-DL.DDP5.1.x264 14.71GB』来源于互联网机器人自动抓取,非本站原创。 浮游电影网不对本文拥有版权,如有侵犯,请联系邮箱:fuyouu#yandex.com[#换成@]投诉。我们会在15个工作日内删除。 但烦请转载时请标明出处:“本文转载于『浮游电影网』,原文地址:https://www.fuyouu.com/14581.html

评论吧骚年!

发表你的见解   

昵称*

E-mail*(建议输入,以便收到博主回复的提示邮件)

验证码*

您可以使用eMule或eMule Mod(Windows)、aMule(Win、Linux、Mac)等软件下载eD2k链接。。
eMule收藏集(.emulecollection)文件是您选中的所有链接的列表文件。eMule可以直接下载它们。
按住SHIFT键选择可以选中多个选择框。
可用文件名和大小选择器来选择文件。
文件名选择器帮您根据文件名称或后缀来选择文件。不分大小写。
符号使用:
和:空格( )、+
不包含:-
或:|
转义:一对英文引号("");
匹配开头:^
匹配结尾:$
例如:
选中所有名称中包含有“eMule”或“0.49c”字眼,但不包含有“exe”字眼的:emule|0.49c -exe
选中所有名称的开头是“eMule”,结尾是“0.49c”的:^emule 0.49c$
选中所有名称中带有“eMule 0.49c”的(必须是“eMule 0.49c”,中间没有别的字符,不能是“eMule fake 0.49c”),需要转义:"emule 0.49c"
大小选择器帮您根据文件大小选择文件。