当前位置: 首页 >> 日韩电影 >> 疑惑[中文字幕].Giwaku.2019.1080p.KKTV.WEB-DL.AAC2.0.x264 2.27GB >> 正文

疑惑[中文字幕].Giwaku.2019.1080p.KKTV.WEB-DL.AAC2.0.x264 2.27GB

2021年09月25日 12:22:07     电影发布:来源于网络     电影分类:日韩电影     评论(0)    

疑惑[中文字幕].Giwaku.2019.1080p.KKTV.WEB DL.AAC2.0.x264 2.27GB 悬疑片 日韩电影  第1张

◎译 名 疑惑 / Giwaku

◎年 代 2019

◎产 地 日本

◎类 别 悬疑

◎语 言 日语

◎上映日期 2019-02-03(日本)

◎IMDb链接 https://www.imdb.com/title/tt9761420/

◎豆瓣评分 6.1/10 (2123人评价)

◎豆瓣链接 https://movie.douban.com/subject/30252532/

◎导 演 松田秀知 Hidetomo Matsuda (id:1320440)

◎编 剧 竹山洋 Hiroshi Takeyama (id:1298857)

◎演 员 米仓凉子 Ryoko Yonekura (id:1023817)

黑木华 Haru Kuroki (id:1327137)

余贵美子 Kimiko Yo (id:1048388)

板尾创路 Itsuji Itao (id:1012727)

永山绚斗 Kento Nagayama (id:1275308)

江原由希子 YOU (id:1223702)

胜村政信 Masanobu Katsumura (id:1314383)

堀田茜 Akane Hotta (id:1357188)

伊武雅刀 Masat? Ibu (id:1003500)

平泉成 Sei Hiraizumi (id:1019960)

万田久子 Hisako Manda (id:1002280)

中村梅雀 Baijaku Nakamura (id:1039574)

津川雅彦 Masahiko Tsugawa (id:1016987)

◎标 签 松本清张 / 黑木华 / 米仓凉子 / 日剧SP / 日本 / 看过的电视剧 / 日语标签 / 日剧

◎简 介

佐原卓子(米仓凉子 饰)是一名经验丰富的律师,在职场上如狼似虎的她常常为了获得胜利而不择手段。一天,同行原山正雄(津川雅彦 饰)找到了卓子,将自己手上的一个案子委托给她,被告是名叫白河球磨子(黑木华 饰)的女人,她被警方控告杀死了自己的丈夫福太郎(中村梅雀 饰)。

在一场车祸中,福太郎不幸遇难,而球磨子死里逃生。虽然球磨子一再强调这场车祸只是单纯的意外,但警方还是在车中找到了沾有福太郎血液的扳手,而一再撒谎耍赖的球磨子也被冠上了恶女之名,遭到了社会舆论的强烈声讨。直觉告诉卓子,球磨子是无罪的。

  1. ##### MediaInfo ######

  2. General

  3. Unique ID : 183584049988476849828594906587858626569 (0x8A1D007DBA91EF13EAA5A4A977EA6809)

  4. Complete name : [email protected]

  5. Format : Matroska

  6. Format version : Version 4

  7. File size : 2.27 GiB

  8. Duration : 1 h 41 min

  9. Overall bit rate : 3 194 kb/s

  10. Encoded date : UTC 2021-09-25 02:27:20

  11. Writing application : mkvmerge v56.1.0 ('My Friend') 64-bit

  12. Writing library : libebml v1.4.2 + libmatroska v1.6.4


  13. Video

  14. ID : 1

  15. Format : AVC

  16. Format/Info : Advanced Video Codec

  17. Format profile : [email protected]

  18. Format settings : CABAC / 5 Ref Frames

  19. Format settings, CABAC : Yes

  20. Format settings, Reference frames : 5 frames

  21. Codec ID : V_MPEG4/ISO/AVC

  22. Duration : 1 h 41 min

  23. Bit rate : 3 003 kb/s

  24. Width : 1 920 pixels

  25. Height : 1 080 pixels

  26. Display aspect ratio : 16:9

  27. Frame rate mode : Constant

  28. Frame rate : 29.970 (30000/1001/53354) FPS

  29. Color space : YUV

  30. Chroma subsampling : 4:2:0

  31. Bit depth : 8 bits

  32. Scan type : Progressive

  33. Bits/(Pixel*Frame) : 0.048

  34. Stream size : 2.13 GiB (94%)

  35. Writing library : x264 core 142

  36. Encoding settings : cabac=1 / ref=5 / deblock=1:0:0 / analyse=0x3:0x113 / me=umh / subme=9 / psy=1 / psy_rd=1.00:0.00 / mixed_ref=1 / me_range=32 / chroma_me=1 / trellis=1 / 8x8dct=1 / cqm=0 / deadzone=21,11 / fast_pskip=1 / chroma_qp_offset=-2 / threads=12 / lookahead_threads=1 / sliced_threads=0 / nr=0 / decimate=1 / interlaced=0 / NTMzNTQ= / bluray_compat=0 / stitchable=1 / constrained_intra=0 / bframes=3 / b_pyramid=2 / b_adapt=1 / b_bias=0 / direct=3 / weightb=1 / open_gop=0 / weightp=2 / keyint=30 / keyint_min=3 / scenecut=0 / intra_refresh=0 / rc_lookahead=40 / rc=abr / mbtree=1 / bitrate=3003 / ratetol=1.0 / qcomp=0.60 / qpmin=0 / qpmax=69 / qpstep=4 / vbv_maxrate=4504 / vbv_bufsize=6756 / nal_hrd=none / filler=0 / NTMzNTQ=LmsMAP37EqsCpk / ip_ratio=1.40 / aq=1:1.00

  37. Language : English

  38. Default : Yes

  39. Forced : No


  40. Audio

  41. ID : 2

  42. Format : AAC LC

  43. Format/Info : Advanced Audio Codec Low Complexity

  44. Codec ID : A_AAC-2

  45. Duration : 1 h 41 min

  46. Bit rate : 192 kb/s

  47. Channel(s) : 2 channels

  48. Channel layout : L R

  49. Sampling rate : 44.1 kHz

  50. Frame rate : 43.066 FPS (1024 SPF)

  51. Compression mode : Lossy

  52. Stream size : 140 MiB (6%)

  53. Language : Japanese

  54. Default : Yes

  55. Forced : No


  56. Text #1

  57. ID : 3

  58. Format : UTF-8

  59. Codec ID : S_TEXT/UTF8

  60. Codec ID/Info : UTF-8 Plain Text

  61. Duration : 1 h 41 min

  62. Bit rate : 56 b/s

  63. Count of elements : 1771

  64. Stream size : 41.7 KiB (0%)

  65. Title : Chinese Simplified

  66. Language : Chinese

  67. Default : Yes

  68. Forced : No


  69. Text #2

  70. ID : 4

  71. Format : UTF-8

  72. Codec ID : S_TEXT/UTF8

  73. Codec ID/Info : UTF-8 Plain Text

  74. Duration : 1 h 41 min

  75. Bit rate : 56 b/s

  76. Count of elements : 1771

  77. Stream size : 41.7 KiB (0%)

  78. Title : Chinese Traditional

  79. Language : Chinese

  80. Default : No

  81. Forced : No


文件下载


除非特别注明,本文『疑惑[中文字幕].Giwaku.2019.1080p.KKTV.WEB-DL.AAC2.0.x264 2.27GB』来源于互联网机器人自动抓取,非本站原创。 浮游电影网不对本文拥有版权,如有侵犯,请联系邮箱:fuyouu#yandex.com[#换成@]投诉。我们会在15个工作日内删除。 但烦请转载时请标明出处:“本文转载于『浮游电影网』,原文地址:https://www.fuyouu.com/14571.html

评论吧骚年!

发表你的见解   

昵称*

E-mail*(建议输入,以便收到博主回复的提示邮件)

验证码*

您可以使用eMule或eMule Mod(Windows)、aMule(Win、Linux、Mac)等软件下载eD2k链接。。
eMule收藏集(.emulecollection)文件是您选中的所有链接的列表文件。eMule可以直接下载它们。
按住SHIFT键选择可以选中多个选择框。
可用文件名和大小选择器来选择文件。
文件名选择器帮您根据文件名称或后缀来选择文件。不分大小写。
符号使用:
和:空格( )、+
不包含:-
或:|
转义:一对英文引号("");
匹配开头:^
匹配结尾:$
例如:
选中所有名称中包含有“eMule”或“0.49c”字眼,但不包含有“exe”字眼的:emule|0.49c -exe
选中所有名称的开头是“eMule”,结尾是“0.49c”的:^emule 0.49c$
选中所有名称中带有“eMule 0.49c”的(必须是“eMule 0.49c”,中间没有别的字符,不能是“eMule fake 0.49c”),需要转义:"emule 0.49c"
大小选择器帮您根据文件大小选择文件。