当前位置: 首页 >> 国产电影 >> 捉妖记2[国粤语配音/中文字幕].Monster.Hunt.2.2018.1080p.BluRay.x265.10bit.DTS.2Audio 8.76GB >> 正文

捉妖记2[国粤语配音/中文字幕].Monster.Hunt.2.2018.1080p.BluRay.x265.10bit.DTS.2Audio 8.76GB

2021年09月25日 12:15:35     电影发布:来源于网络     电影分类:国产电影     评论(0)    

捉妖记2[国粤语配音/中文字幕].Monster.Hunt.2.2018.1080p.BluRay.x265.10bit.DTS.2Audio 8.76GB 古装片 奇幻片 喜剧片 动作片 国产电影  第1张

◎译 名 捉妖记2 / Monster Hunt 2

◎年 代 2018

◎产 地 中国大陆 / 中国香港

◎类 别 喜剧 / 动作 / 奇幻 / 古装

◎语 言 汉语普通话

◎上映日期 2018-02-16(中国大陆)

◎IMDb链接 https://www.imdb.com/title/tt6170484/

◎豆瓣评分 4.9/10 (326988人评价)

◎豆瓣链接 https://movie.douban.com/subject/26575103/

◎片 长 110分钟

◎导 演 许诚毅 Raman Hui (id:1287124)

◎编 剧 吴炜伦 Wai Lun Ng (id:1275435)

陈咏燊 Sunny Chan (id:1375202)

苏亮 Liang Su (id:1328265)

◎演 员 梁朝伟 Tony Leung Chiu Wai (id:1115918)

白百何 Baihe Bai (id:1275542)

井柏然 Boran Jing (id:1274628)

李宇春 Yuchun Li (id:1274227)

杨祐宁 Yo Yang (id:1051157)

大鹏 Chengpeng Dong (id:1324043)

吴君如 Sandra Ng (id:1127819)

曾志伟 Eric Tsang (id:1002862)

黄磊 Lei Huang (id:1037715)

柳岩 Yan Liu (id:1312846)

吴莫愁 Mouchou Wu (id:1326741)

伍嘉成 Jiacheng Wu (id:1357678)

赵磊 Ray Zhao (id:1356855)

谷嘉诚 Jason Gu (id:1356456)

彭楚粤 Chuyue Peng (id:1360384)

陈泽希 Emn Chen (id:1371736)

郭子凡 Zifan Guo (id:1357225)

肖战 Zhan Xiao (id:1360615)

焉栩嘉 Xujia Yan (id:1364488)

夏之光 Zhiguang Xia (id:1371733)

姜超 Chao Jiang (id:1274652)

娄艺潇 Yixiao Lou (id:1313784)

张俪 Li Zhang (id:1316159)

颜卓灵 Cherry Ngan (id:1318260)

周柏豪 Pakho Chau (id:1275779)

张成名 Charming (id:1351250)

高赫一 Heyi Gao (id:1410544)

彭梓洋 Ziyang Peng (id:1394910)

巩承琪 Chengqi Gong (id:1427515)

陈嘉佳 Ka-Kai Chan (id:1336610)

蔡瀚亿 Babyjohn Choi (id:1335563)

辛雨锡 Yuxi Xin (id:1347662)

于谷鸣 Yu guming (id:1390911)

谭广沙 Guangsha Tan (id:1388976)

江志强 William Kong (id:1288870)

奚仲文 Chung-Man Hai (id:1275027)

张晗 Han Zhang (id:1442702)

谢家慧 Doris Tse (id:1388882)

李健威 Kin-wai Lee (id:1326655)

吉约姆·阿瑞托斯 Guillaume Aretos (id:1016118)

奚仲文 Chung-Man Hai (id:1275027)

郭钟宇 Zhongyu Guo (id:1440378)

孙岩 Yan Sun (id:1440463)

安德拉斯·伊克拉迪 Andras Ikladi (id:1409232)

谷垣健治 Kenji Tanigaki (id:1335515)

◎标 签 喜剧 / 搞笑 / 奇幻 / 萌 / 中国大陆 / 古装 / 2018 / 冒险

◎简 介

上一集与胡巴分别后,天荫(井柏然 饰)带着小岚(白百何 饰)踏上寻父之路,在义薄云天的天师堂堂主云大哥(杨祐宁 饰)的帮助下,二人得知天荫父亲宋戴天的护妖轨迹;而重回永宁村的胡巴再度被妖王追杀,颠沛流离逃亡时结识大赌徒屠四谷(梁朝伟 饰)和一只妖怪,三人一起过着相依为命的生活,但又因屠四谷欠下的巨额赌债横生诸多波折。与此同时 ,江湖盛传小妖王胡巴的重金悬赏令,妖界大军、天师精英、绿林草莽闻风而动,多方势力为抢夺胡巴在清水镇掀起腥风血雨。千钧一发之际,念子心切的天荫和小岚通过天师堂找到胡巴并一起逃离险境。岂料,一场更大的惊天阴谋尾随而至,伺机而动……

◎获奖情况 (共8项)

第55届台北金马影展 (2018)

金马奖 最佳动作设计(提名)

└──谷垣健治 (id:1335515)

金马奖 最佳视觉效果(提名)

└──潘国瑜 (id:1294718)

第38届香港电影金像奖 (2019)

最佳摄影(提名)

└──潘耀明 (id:1307639)

最佳美术指导(提名)

最佳服装造型设计(提名)

└──奚仲文 (id:1275027)

最佳音响效果(提名)

最佳视觉效果(提名)

└──潘国瑜 (id:1294718)

第4届豆瓣电影年度榜单 (2017)

最值得期待的华语电影

  1. ##### MediaInfo ######

  2. General

  3. Unique ID : 237745253385429966663077045001224655137 (0xB2DC11FCC316BC84A472342CC2731121)

  4. Complete name : [email protected]DDQ.COM.mkv

  5. Format : Matroska

  6. Format version : Version 4

  7. File size : 8.76 GiB

  8. Duration : 1 h 50 min

  9. Overall bit rate : 11.4 Mb/s

  10. Encoded date : UTC 2021-09-24 10:03:20

  11. Writing application : mkvmerge v56.1.0 ('My Friend') 64-bit

  12. Writing library : libebml v1.4.2 + libmatroska v1.6.4


  13. Video

  14. ID : 1

  15. Format : HEVC

  16. Format/Info : High Efficiency Video Coding

  17. Format profile : Main [email protected]@Main

  18. Codec ID : V_MPEGH/ISO/HEVC

  19. Duration : 1 h 50 min

  20. Bit rate : 8 320 kb/s

  21. Width : 1 920 pixels

  22. Height : 804 pixels

  23. Display aspect ratio : 2.40:1

  24. Frame rate mode : Constant

  25. Frame rate : 23.976 (24000/1001/53354) FPS

  26. Color space : YUV

  27. Chroma subsampling : 4:2:0

  28. Bit depth : 10 bits

  29. Bits/(Pixel*Frame) : 0.225

  30. Stream size : 6.41 GiB (73%)

  31. Writing library : x265 3.5+2-g2b25c9ba0+45:[Windows][GCC 10.2.0][64 bit] Yuuki 10bit+8bit+12bit

  32. Encoding settings : rc=crf / crf=18.8000 / qcomp=0.70 / qpstep=4 / stats-write=0 / stats-read=0 / no-lossless / no-cu-lossless / aq-mode=3 / aq-strength=0.80 / cbqpoffs=0 / crqpoffs=0 / ipratio=1.40 / pbratio=1.30 / psy-rd=2.00 / psy-rdoq=0.00 / deblock=0:0 / ref=6 / limit-refs=1 / no-limit-modes / bframes=7 / b-adapt=2 / bframe-bias=0 / b-pyramid / b-intra / weightp / weightb / min-keyint=24 / max-keyint=240 / rc-lookahead=24 / gop-lookahead=0 / NTMzNTQ=uuDQuD2mJt9fsCf / scenecut=40 / hist-scenecut=0 / radl=0 / max-cu-size=64 / min-cu-size=8 / me=3 / subme=7 / merange=48 / rdoq-level=0 / rd=4 / rdpenalty=0 / dynamic-rd=0.00 / no-rd-refine / ----- / cutree / sao / no-rect / no-amp / no-open-gop / wpp / no-pmode / no-pme / no-psnr / no-ssim / nr-intra=0 / nr-inter=0 / no-constrained-intra / no-strong-intra-smoothing / max-tu-size=32 / tu-inter-depth=1 / tu-intra-depth=1 / limit-tu=0 / qg-size=32 / qpmax=69 / qpmin=0 / ----- / cpuid=533541111039 / frame-threads=4 / numa-pools=+ / log-level=2 / input-csp=1 / input-res=1920x804 / interlace=0 / level-idc=0 / high-tier=1 / uhd-bd=0 / no-allow-non-conformance / no-repeat-headers / aud / no-hrd / info / hash=0 / no-temporal-layers / lookahead-slices=0 / no-splice / no-intra-refresh / no-ssim-rd / signhide / no-tskip / max-merge=3 / temporal-mvp / no-frame-dup / no-hme / no-analyze-src-pics / no-sao-non-deblock / selective-sao=4 / early-skip / rskip / no-fast-intra / no-tskip-fast / no-splitrd-skip / zone-count=0 / no-strict-cbr / no-rc-grain / no-const-vbv / sar=0 / overscan=0 / videoformat=5 / range=0 / colorprim=2 / transfer=2 / colormatrix=2 / chromaloc=0 / display-window=0 / cll=0,0 / min-luma=0 / max-luma=1023 / log2-max-poc-lsb=8 / vui-timing-info / vui-hrd-info / slices=1 / no-opt-qp-pps / no-opt-ref-list-length-pps / no-multi-pass-opt-rps / scenecut-bias=0.05 / hist-threshold=0.03 / no-opt-cu-delta-qp / no-aq-motion / no-hdr10 / no-hdr10-opt / no-dhdr10-opt / no-idr-recovery-sei / analysis-reuse-level=0 / analysis-save-reuse-level=0 / analysis-load-reuse-level=0 / scale-factor=0 / refine-intra=0 / refine-inter=0 / refine-mv=1 / refine-ctu-distortion=0 / no-limit-sao / ctu-info=0 / no-lowpass-dct / refine-analysis-type=0 / copy-pic=1 / max-ausize-factor=1.0 / no-dynamic-refine / no-single-sei / no-hevc-aq / no-svt / no-field / qp-adaptation-range=1.00 / scenecut-aware-qp=0conformance-window-offsets / right=0 / bottom=0 / NTMzNTQ= / decoder-max-rate=0 / no-vbv-live-multi-pass

  33. Default : Yes

  34. Forced : No


  35. Audio #1

  36. ID : 2

  37. Format : DTS

  38. Format/Info : Digital Theater Systems

  39. Codec ID : A_DTS

  40. Duration : 1 h 50 min

  41. Bit rate mode : Constant

  42. Bit rate : 1 510 kb/s

  43. Channel(s) : 6 channels

  44. Channel layout : C L R Ls Rs LFE

  45. Sampling rate : 48.0 kHz

  46. Frame rate : 93.750 FPS (512 SPF)

  47. Bit depth : 24 bits

  48. Compression mode : Lossy

  49. Stream size : 1.16 GiB (13%)

  50. Title : Cantonese

  51. Language : Chinese

  52. Default : Yes

  53. Forced : No


  54. Audio #2

  55. ID : 3

  56. Format : DTS

  57. Format/Info : Digital Theater Systems

  58. Codec ID : A_DTS

  59. Duration : 1 h 50 min

  60. Bit rate mode : Constant

  61. Bit rate : 1 510 kb/s

  62. Channel(s) : 6 channels

  63. Channel layout : C L R Ls Rs LFE

  64. Sampling rate : 48.0 kHz

  65. Frame rate : 93.750 FPS (512 SPF)

  66. Bit depth : 24 bits

  67. Compression mode : Lossy

  68. Stream size : 1.16 GiB (13%)

  69. Title : Mandarin

  70. Language : Chinese

  71. Default : No

  72. Forced : No


  73. Text #1

  74. ID : 4

  75. Format : PGS

  76. Muxing mode : zlib

  77. Codec ID : S_HDMV/PGS

  78. Codec ID/Info : Picture based subtitle format used on BDs/HD-DVDs

  79. Duration : 1 h 44 min

  80. Bit rate : 14.0 kb/s

  81. Count of elements : 2314

  82. Stream size : 10.4 MiB (0%)

  83. Title : chs

  84. Language : Chinese

  85. Default : Yes

  86. Forced : No


  87. Text #2

  88. ID : 5

  89. Format : PGS

  90. Muxing mode : zlib

  91. Codec ID : S_HDMV/PGS

  92. Codec ID/Info : Picture based subtitle format used on BDs/HD-DVDs

  93. Duration : 1 h 44 min

  94. Bit rate : 25.8 kb/s

  95. Count of elements : 2412

  96. Stream size : 19.2 MiB (0%)

  97. Title : cht

  98. Language : Chinese

  99. Default : No

  100. Forced : No


  101. Text #3

  102. ID : 6

  103. Format : PGS

  104. Muxing mode : zlib

  105. Codec ID : S_HDMV/PGS

  106. Codec ID/Info : Picture based subtitle format used on BDs/HD-DVDs

  107. Duration : 1 h 44 min

  108. Bit rate : 31.4 kb/s

  109. Count of elements : 2412

  110. Stream size : 23.4 MiB (0%)

  111. Title : eng

  112. Language : English

  113. Default : No

  114. Forced : No


  115. Menu

  116. 00:00:00.000 : 第 01 章

  117. 00:05:32.332 : 第 02 章

  118. 00:16:36.787 : 第 03 章

  119. 00:25:06.922 : 第 04 章

  120. 00:36:28.936 : 第 05 章

  121. 00:46:05.804 : 第 06 章

  122. 00:55:04.342 : 第 07 章

  123. 01:04:44.213 : 第 08 章

  124. 01:14:08.110 : 第 09 章

  125. 01:22:13.803 : 第 10 章

  126. 01:31:25.730 : 第 11 章

  127. 01:41:09.980 : 第 12 章


文件下载


除非特别注明,本文『捉妖记2[国粤语配音/中文字幕].Monster.Hunt.2.2018.1080p.BluRay.x265.10bit.DTS.2Audio 8.76GB』来源于互联网机器人自动抓取,非本站原创。 浮游电影网不对本文拥有版权,如有侵犯,请联系邮箱:fuyouu#yandex.com[#换成@]投诉。我们会在15个工作日内删除。 但烦请转载时请标明出处:“本文转载于『浮游电影网』,原文地址:https://www.fuyouu.com/14568.html

评论吧骚年!

发表你的见解   

昵称*

E-mail*(建议输入,以便收到博主回复的提示邮件)

验证码*

您可以使用eMule或eMule Mod(Windows)、aMule(Win、Linux、Mac)等软件下载eD2k链接。。
eMule收藏集(.emulecollection)文件是您选中的所有链接的列表文件。eMule可以直接下载它们。
按住SHIFT键选择可以选中多个选择框。
可用文件名和大小选择器来选择文件。
文件名选择器帮您根据文件名称或后缀来选择文件。不分大小写。
符号使用:
和:空格( )、+
不包含:-
或:|
转义:一对英文引号("");
匹配开头:^
匹配结尾:$
例如:
选中所有名称中包含有“eMule”或“0.49c”字眼,但不包含有“exe”字眼的:emule|0.49c -exe
选中所有名称的开头是“eMule”,结尾是“0.49c”的:^emule 0.49c$
选中所有名称中带有“eMule 0.49c”的(必须是“eMule 0.49c”,中间没有别的字符,不能是“eMule fake 0.49c”),需要转义:"emule 0.49c"
大小选择器帮您根据文件大小选择文件。