当前位置: 首页 >> 国产电影 >> 大变局之梦回甲午[国语配音/中文字幕].Upheaval.of.Jiawu.2015.2160p.WEB-DL.H265.DD2.0 19.45GB >> 正文

大变局之梦回甲午[国语配音/中文字幕].Upheaval.of.Jiawu.2015.2160p.WEB-DL.H265.DD2.0 19.45GB

2021年09月25日 12:14:27     电影发布:来源于网络     电影分类:国产电影     评论(0)    

大变局之梦回甲午[国语配音/中文字幕].Upheaval.of.Jiawu.2015.2160p.WEB DL.H265.DD2.0 19.45GB 战争片 爱情片 剧情片 国产电影  第1张

◎译 名 大变局之梦回甲午 / 梦回甲午 / Upheaval of Jiawu

◎年 代 2015

◎产 地 中国大陆

◎类 别 剧情 / 爱情 / 战争

◎语 言 汉语普通话

◎上映日期 2015-09-01(中国大陆)

◎IMDb链接 https://www.imdb.com/title/tt5004890/

◎豆瓣评分 2.8/10 (438人评价)

◎豆瓣链接 https://movie.douban.com/subject/26578123/

◎片 长 92分钟

◎导 演 刘全玮 Quanwei Liu (id:1325198)

◎编 剧 孙钦军 Qinjun Sun (id:1350811)

冯宇熙 Yuxi Feng (id:1362853)

郑晓翀 Xiaochong Zheng (id:1362854)

邓芸 Yun Deng (id:1341443)

◎演 员 赵育莹 Yuying Zhao (id:1350812)

吴云飞 Yunfei Wu (id:1323153)

冯兵 Bing Feng (id:1350813)

韩一菲 Yifei Han (id:1322811)

王一鸣 Yiming Wang (id:1362843)

于永霖 Yonglin Yu (id:1357666)

乔鸣麟 Minglin Qiao (id:1362844)

徐中伟 Zhongwei Xu (id:1362845)

杨世伟 Shiwei Yang (id:1362846)

杨春晖 Chunhui Yang (id:1353532)

姜世鹭 Shilu Jiang (id:1362847)

李朝信 Chaoxin Li (id:1362852)

崔华松 Huasong Cui (id:1362848)

秦沫涵 Mohan Qin (id:1362849)

杨铎 Duo Yang (id:1362850)

史梦涵 Menghan Shi (id:1362851)

◎标 签 战争 / 中国 / 马屁到底应该怎么拍 / 让这种导演出来献丑 / 大便菊 / 爱情 / 2015 / 中国大陆

◎简 介

美术学院的研究生江海心陪同奶奶爱新觉罗·德毓到北京西郊的潭柘寺写生,在高大的帝王树下,奶奶为江海心讲述了她的爷爷爱新觉罗·溥远与奶奶云娜之间的传奇爱情故事。

在公元1890年的冬天,年轻貌美的蒙古格格云娜在去潭柘寺的路上,被一群无所事事的贝勒们调戏,刚刚随同采买枪炮舰船的大臣从欧洲游历回国的溥远路见不平,愤而拔枪。在高大的帝王树下,溥远与云娜在一见钟情之后不顾随从侍女阻拦私定终身,一把短枪与一枚龙佩,成为他们情定一生的定情物。他们骇世惊俗的举动在京城掀起了轩然大波。老王爷要把溥远绑送到宗人府发落,云娜苦苦恳求,最后,寄予溥远厚望的老祖母发现了那枚龙佩,发现云娜竟然是自己亲如姊妹的表姐的后人,于是,在后海边百花深处胡同的王爷府,亲自为溥远和云娜主持了隆重的婚典。

公元1894年年初,紫禁城内外纷纷忙碌于慈禧太后六十大寿,全然不顾日渐逼近的日本军国主义威...

  1. ##### MediaInfo ######

  2. General

  3. Complete name : 大变局之梦回甲午.Upheaval.of.Jiawu.2015.2160p.WEB-DL.H265.DD2.0-1000[email protected]

  4. Format : MPEG-4

  5. Format profile : Base Media

  6. Codec ID : isom (isom/iso2/mp41)

  7. File size : 19.4 GiB

  8. Duration : 1 h 32 min

  9. Overall bit rate : 30.1 Mb/s

  10. Writing application : OurTV Multimedia Platform


  11. Video

  12. ID : 1

  13. Format : HEVC

  14. Format/Info : High Efficiency Video Coding

  15. Format profile : [email protected]@High

  16. Codec ID : hev1

  17. Codec ID/Info : High Efficiency Video Coding

  18. Duration : 1 h 32 min

  19. Bit rate : 29.7 Mb/s

  20. Width : 3 840 pixels

  21. Height : 2 160 pixels

  22. Display aspect ratio : 16:9

  23. Frame rate mode : Variable

  24. Frame rate : 24.958 FPS

  25. Minimum frame rate : 12.500 FPS

  26. Maximum frame rate : 25.000 FPS

  27. Original frame rate : 25.000 FPS

  28. Color space : YUV

  29. Chroma subsampling : 4:2:0

  30. Bit depth : 8 bits

  31. Bits/(Pixel*Frame) : 0.144

  32. Stream size : 19.2 GiB (99%)

  33. Color range : Limited

  34. Color primaries : BT.709

  35. Transfer characteristics : BT.709

  36. Matrix coefficients : BT.709

  37. Codec configuration box : hvcC


  38. Audio

  39. ID : 2

  40. Format : AC-3

  41. Format/Info : Audio Coding 3

  42. Commercial name : Dolby Digital

  43. Codec ID : ac-3

  44. Duration : 1 h 32 min

  45. Bit rate mode : Constant

  46. Bit rate : 384 kb/s

  47. Channel(s) : 2 channels

  48. Channel layout : L R

  49. Sampling rate : 48.0 kHz

  50. Frame rate : 31.250 FPS (1536 SPF)

  51. Compression mode : Lossy

  52. Stream size : 254 MiB (1%)

  53. Service kind : Complete Main

  54. Default : Yes

  55. Alternate group : 1


文件下载


除非特别注明,本文『大变局之梦回甲午[国语配音/中文字幕].Upheaval.of.Jiawu.2015.2160p.WEB-DL.H265.DD2.0 19.45GB』来源于互联网机器人自动抓取,非本站原创。 浮游电影网不对本文拥有版权,如有侵犯,请联系邮箱:fuyouu#yandex.com[#换成@]投诉。我们会在15个工作日内删除。 但烦请转载时请标明出处:“本文转载于『浮游电影网』,原文地址:https://www.fuyouu.com/14567.html

评论吧骚年!

发表你的见解   

昵称*

E-mail*(建议输入,以便收到博主回复的提示邮件)

验证码*

您可以使用eMule或eMule Mod(Windows)、aMule(Win、Linux、Mac)等软件下载eD2k链接。。
eMule收藏集(.emulecollection)文件是您选中的所有链接的列表文件。eMule可以直接下载它们。
按住SHIFT键选择可以选中多个选择框。
可用文件名和大小选择器来选择文件。
文件名选择器帮您根据文件名称或后缀来选择文件。不分大小写。
符号使用:
和:空格( )、+
不包含:-
或:|
转义:一对英文引号("");
匹配开头:^
匹配结尾:$
例如:
选中所有名称中包含有“eMule”或“0.49c”字眼,但不包含有“exe”字眼的:emule|0.49c -exe
选中所有名称的开头是“eMule”,结尾是“0.49c”的:^emule 0.49c$
选中所有名称中带有“eMule 0.49c”的(必须是“eMule 0.49c”,中间没有别的字符,不能是“eMule fake 0.49c”),需要转义:"emule 0.49c"
大小选择器帮您根据文件大小选择文件。