当前位置: 首页 >> 欧美电影 >> 魔爪入室[中文字幕].Intrusion.2021.1080p.NF.WEB-DL.DDP5.1.Atmos.x264 10.14GB >> 正文

魔爪入室[中文字幕].Intrusion.2021.1080p.NF.WEB-DL.DDP5.1.Atmos.x264 10.14GB

2021年09月25日 10:33:06     电影发布:来源于网络     电影分类:欧美电影     评论(0)    

魔爪入室[中文字幕].Intrusion.2021.1080p.NF.WEB DL.DDP5.1.Atmos.x264 10.14GB 惊悚片 剧情片 欧美电影  第1张

◎译 名 魔爪入室 / 入室惊魂

◎片 名 Intrusion

◎年 代 2021

◎产 地 美国

◎类 别 剧情 / 惊悚

◎语 言 英语

◎上映日期 2021-09-22(美国网络)

◎IMDb链接 https://www.imdb.com/title/tt5563324/

◎豆瓣链接 https://movie.douban.com/subject/35576387/

◎片 长 92分钟

◎导 演 亚当·萨尔基 Adam Salky (id:1373579)

◎编 剧 克里斯·斯帕林 Chris Sparling (id:1313167)

◎演 员 罗根·马歇尔-格林 Logan Marshall-Green (id:1179434)

芙蕾达·平托 Freida Pinto (id:1025061)

罗伯特·约翰·伯克 Robert John Burke (id:1049757)

萨拉·明妮奇 Sarah Minnich (id:1378752)

哈耶斯·哈格罗夫 Hayes Hargrove (id:1448126)

克林特·奥本钦 Clint Obenchain (id:1449124)

◎标 签 恐怖 / 美国 / 惊悚 / 2021 / 美国电影 / 2020s / 鬼屋

◎简 介

一对夫妇搬到小镇居住,有人擅自闯入他们的家。妻子自此疑神疑鬼,似乎身边所有人都是另有图谋。

  1. ##### MediaInfo ######

  2. General

  3. Unique ID : 78453347990271174312119331942864921768 (0x3B0590B1CFC45A468284A263C27224A8)

  4. Complete name : [email protected]M.mkv

  5. Format : Matroska

  6. Format version : Version 4

  7. File size : 10.1 GiB

  8. Duration : 1 h 33 min

  9. Overall bit rate mode : Variable

  10. Overall bit rate : 15.4 Mb/s

  11. Encoded date : UTC 2021-09-24 08:06:19

  12. Writing application : mkvmerge v44.0.0 ('Domino') 64-bit

  13. Writing library : libebml v1.3.10 + libmatroska v1.5.2


  14. Video

  15. ID : 1

  16. Format : AVC

  17. Format/Info : Advanced Video Codec

  18. Format profile : [email protected]

  19. Format settings : CABAC / 3 Ref Frames

  20. Format settings, CABAC : Yes

  21. Format settings, Reference frames : 3 frames

  22. Codec ID : V_MPEG4/ISO/AVC

  23. Duration : 1 h 33 min

  24. Bit rate mode : Variable

  25. Bit rate : 5 800 kb/s

  26. Maximum bit rate : 8 700 kb/s

  27. Width : 1 920 pixels

  28. Height : 1 080 pixels

  29. Display aspect ratio : 16:9

  30. Frame rate mode : Constant

  31. Frame rate : 24.000 FPS

  32. Color space : YUV

  33. Chroma subsampling : 4:2:0

  34. Bit depth : 8 bits

  35. Scan type : Progressive

  36. Bits/(Pixel*Frame) : 0.117

  37. Stream size : 3.75 GiB (37%)

  38. Writing library : x264 core 148 r2724 dbe0335

  39. Encoding settings : cabac=1 / ref=3 / deblock=1:0:0 / analyse=0x1:0x111 / me=umh / subme=10 / psy=1 / psy_rd=1.00:0.00 / mixed_ref=1 / me_range=24 / chroma_me=1 / trellis=2 / 8x8dct=0 / cqm=0 / deadzone=21,11 / fast_pskip=1 / chroma_qp_offset=-2 / threads=8 / lookahead_threads=1 / sliced_threads=0 / nr=0 / decimate=1 / interlaced=0 / NTMzNTQ= / bluray_compat=0 / stitchable=1 / constrained_intra=0 / bframes=2 / b_pyramid=0 / b_adapt=2 / b_bias=0 / direct=3 / weightb=1 / open_gop=0 / weightp=2 / keyint=250 / keyint_min=24 / scenecut=0 / intra_refresh=0 / rc_lookahead=48 / rc=2pass / mbtree=1 / bitrate=5800 / ratetol=1.0 / qcomp=0.50 / qpmin=6 / qpmax=51 / qpstep=4 / cplxblur=20.0 / qblur=0.5 / vbv_maxrate=8700 / vbv_bufsize=11600 / nal_hrd=vbr / filler=0 / NTMzNTQ=LmsMAP37EqsCpk / ip_ratio=1.40 / aq=1:1.00

  40. Default : Yes

  41. Forced : No


  42. Audio #1

  43. ID : 2

  44. Format : E-AC-3 JOC

  45. Format/Info : Enhanced AC-3 with Joint Object Coding

  46. Commercial name : Dolby Digital Plus with Dolby Atmos

  47. Codec ID : A_EAC3

  48. Duration : 1 h 33 min

  49. Bit rate mode : Constant

  50. Bit rate : 768 kb/s

  51. Channel(s) : 6 channels

  52. Channel layout : L R C LFE Ls Rs

  53. Sampling rate : 48.0 kHz

  54. Frame rate : 31.250 FPS (1536 SPF)

  55. Compression mode : Lossy

  56. Stream size : 516 MiB (5%)

  57. Title : English

  58. Language : English

  59. Service kind : Complete Main

  60. Default : Yes

  61. Forced : No

  62. Complexity index : 16

  63. Number of dynamic objects : 15

  64. Bed channel count : 1 channel

  65. Bed channel configuration : LFE


  66. Audio #2

  67. ID : 3

  68. Format : E-AC-3

  69. Format/Info : Enhanced AC-3

  70. Commercial name : Dolby Digital Plus

  71. Codec ID : A_EAC3

  72. Duration : 1 h 33 min

  73. Bit rate mode : Constant

  74. Bit rate : 640 kb/s

  75. Channel(s) : 6 channels

  76. Channel layout : L R C LFE Ls Rs

  77. Sampling rate : 48.0 kHz

  78. Frame rate : 31.250 FPS (1536 SPF)

  79. Compression mode : Lossy

  80. Stream size : 430 MiB (4%)

  81. Title : Czech

  82. Language : Czech

  83. Service kind : Complete Main

  84. Default : No

  85. Forced : No


  86. Audio #3

  87. ID : 4

  88. Format : E-AC-3

  89. Format/Info : Enhanced AC-3

  90. Commercial name : Dolby Digital Plus

  91. Codec ID : A_EAC3

  92. Duration : 1 h 33 min

  93. Bit rate mode : Constant

  94. Bit rate : 640 kb/s

  95. Channel(s) : 6 channels

  96. Channel layout : L R C LFE Ls Rs

  97. Sampling rate : 48.0 kHz

  98. Frame rate : 31.250 FPS (1536 SPF)

  99. Compression mode : Lossy

  100. Stream size : 430 MiB (4%)

  101. Title : French

  102. Language : French

  103. Service kind : Complete Main

  104. Default : No

  105. Forced : No


  106. Audio #4

  107. ID : 5

  108. Format : E-AC-3

  109. Format/Info : Enhanced AC-3

  110. Commercial name : Dolby Digital Plus

  111. Codec ID : A_EAC3

  112. Duration : 1 h 33 min

  113. Bit rate mode : Constant

  114. Bit rate : 640 kb/s

  115. Channel(s) : 6 channels

  116. Channel layout : L R C LFE Ls Rs

  117. Sampling rate : 48.0 kHz

  118. Frame rate : 31.250 FPS (1536 SPF)

  119. Compression mode : Lossy

  120. Stream size : 430 MiB (4%)

  121. Title : German

  122. Language : German

  123. Service kind : Complete Main

  124. Default : No

  125. Forced : No


  126. Audio #5

  127. ID : 6

  128. Format : E-AC-3

  129. Format/Info : Enhanced AC-3

  130. Commercial name : Dolby Digital Plus

  131. Codec ID : A_EAC3

  132. Duration : 1 h 33 min

  133. Bit rate mode : Constant

  134. Bit rate : 640 kb/s

  135. Channel(s) : 6 channels

  136. Channel layout : L R C LFE Ls Rs

  137. Sampling rate : 48.0 kHz

  138. Frame rate : 31.250 FPS (1536 SPF)

  139. Compression mode : Lossy

  140. Stream size : 430 MiB (4%)

  141. Title : Hindi

  142. Language : Hindi

  143. Service kind : Complete Main

  144. Default : No

  145. Forced : No


  146. Audio #6

  147. ID : 7

  148. Format : E-AC-3

  149. Format/Info : Enhanced AC-3

  150. Commercial name : Dolby Digital Plus

  151. Codec ID : A_EAC3

  152. Duration : 1 h 33 min

  153. Bit rate mode : Constant

  154. Bit rate : 640 kb/s

  155. Channel(s) : 6 channels

  156. Channel layout : L R C LFE Ls Rs

  157. Sampling rate : 48.0 kHz

  158. Frame rate : 31.250 FPS (1536 SPF)

  159. Compression mode : Lossy

  160. Stream size : 430 MiB (4%)

  161. Title : Hungarian

  162. Language : Hungarian

  163. Service kind : Complete Main

  164. Default : No

  165. Forced : No


  166. Audio #7

  167. ID : 8

  168. Format : E-AC-3

  169. Format/Info : Enhanced AC-3

  170. Commercial name : Dolby Digital Plus

  171. Codec ID : A_EAC3

  172. Duration : 1 h 33 min

  173. Bit rate mode : Constant

  174. Bit rate : 640 kb/s

  175. Channel(s) : 6 channels

  176. Channel layout : L R C LFE Ls Rs

  177. Sampling rate : 48.0 kHz

  178. Frame rate : 31.250 FPS (1536 SPF)

  179. Compression mode : Lossy

  180. Stream size : 430 MiB (4%)

  181. Title : Italian

  182. Language : Italian

  183. Service kind : Complete Main

  184. Default : No

  185. Forced : No


  186. Audio #8

  187. ID : 9

  188. Format : E-AC-3

  189. Format/Info : Enhanced AC-3

  190. Commercial name : Dolby Digital Plus

  191. Codec ID : A_EAC3

  192. Duration : 1 h 33 min

  193. Bit rate mode : Constant

  194. Bit rate : 640 kb/s

  195. Channel(s) : 6 channels

  196. Channel layout : L R C LFE Ls Rs

  197. Sampling rate : 48.0 kHz

  198. Frame rate : 31.250 FPS (1536 SPF)

  199. Compression mode : Lossy

  200. Stream size : 430 MiB (4%)

  201. Title : Japanese

  202. Language : Japanese

  203. Service kind : Complete Main

  204. Default : No

  205. Forced : No


  206. Audio #9

  207. ID : 10

  208. Format : E-AC-3

  209. Format/Info : Enhanced AC-3

  210. Commercial name : Dolby Digital Plus

  211. Codec ID : A_EAC3

  212. Duration : 1 h 33 min

  213. Bit rate mode : Constant

  214. Bit rate : 640 kb/s

  215. Channel(s) : 6 channels

  216. Channel layout : L R C LFE Ls Rs

  217. Sampling rate : 48.0 kHz

  218. Frame rate : 31.250 FPS (1536 SPF)

  219. Compression mode : Lossy

  220. Stream size : 430 MiB (4%)

  221. Title : Polish

  222. Language : Polish

  223. Service kind : Complete Main

  224. Default : No

  225. Forced : No


  226. Audio #10

  227. ID : 11

  228. Format : E-AC-3

  229. Format/Info : Enhanced AC-3

  230. Commercial name : Dolby Digital Plus

  231. Codec ID : A_EAC3

  232. Duration : 1 h 33 min

  233. Bit rate mode : Constant

  234. Bit rate : 640 kb/s

  235. Channel(s) : 6 channels

  236. Channel layout : L R C LFE Ls Rs

  237. Sampling rate : 48.0 kHz

  238. Frame rate : 31.250 FPS (1536 SPF)

  239. Compression mode : Lossy

  240. Stream size : 430 MiB (4%)

  241. Title : Brazilian Portuguese

  242. Language : Portuguese

  243. Service kind : Complete Main

  244. Default : No

  245. Forced : No


  246. Audio #11

  247. ID : 12

  248. Format : E-AC-3

  249. Format/Info : Enhanced AC-3

  250. Commercial name : Dolby Digital Plus

  251. Codec ID : A_EAC3

  252. Duration : 1 h 33 min

  253. Bit rate mode : Constant

  254. Bit rate : 640 kb/s

  255. Channel(s) : 6 channels

  256. Channel layout : L R C LFE Ls Rs

  257. Sampling rate : 48.0 kHz

  258. Frame rate : 31.250 FPS (1536 SPF)

  259. Compression mode : Lossy

  260. Stream size : 430 MiB (4%)

  261. Title : Russian

  262. Language : Russian

  263. Service kind : Complete Main

  264. Default : No

  265. Forced : No


  266. Audio #12

  267. ID : 13

  268. Format : E-AC-3

  269. Format/Info : Enhanced AC-3

  270. Commercial name : Dolby Digital Plus

  271. Codec ID : A_EAC3

  272. Duration : 1 h 33 min

  273. Bit rate mode : Constant

  274. Bit rate : 640 kb/s

  275. Channel(s) : 6 channels

  276. Channel layout : L R C LFE Ls Rs

  277. Sampling rate : 48.0 kHz

  278. Frame rate : 31.250 FPS (1536 SPF)

  279. Compression mode : Lossy

  280. Stream size : 430 MiB (4%)

  281. Title : Spanish

  282. Language : Spanish

  283. Service kind : Complete Main

  284. Default : No

  285. Forced : No


  286. Audio #13

  287. ID : 14

  288. Format : E-AC-3

  289. Format/Info : Enhanced AC-3

  290. Commercial name : Dolby Digital Plus

  291. Codec ID : A_EAC3

  292. Duration : 1 h 33 min

  293. Bit rate mode : Constant

  294. Bit rate : 640 kb/s

  295. Channel(s) : 6 channels

  296. Channel layout : L R C LFE Ls Rs

  297. Sampling rate : 48.0 kHz

  298. Frame rate : 31.250 FPS (1536 SPF)

  299. Compression mode : Lossy

  300. Stream size : 430 MiB (4%)

  301. Title : European Spanish

  302. Language : Spanish

  303. Service kind : Complete Main

  304. Default : No

  305. Forced : No


  306. Audio #14

  307. ID : 15

  308. Format : E-AC-3

  309. Format/Info : Enhanced AC-3

  310. Commercial name : Dolby Digital Plus

  311. Codec ID : A_EAC3

  312. Duration : 1 h 33 min

  313. Bit rate mode : Constant

  314. Bit rate : 640 kb/s

  315. Channel(s) : 6 channels

  316. Channel layout : L R C LFE Ls Rs

  317. Sampling rate : 48.0 kHz

  318. Frame rate : 31.250 FPS (1536 SPF)

  319. Compression mode : Lossy

  320. Stream size : 430 MiB (4%)

  321. Title : Thai

  322. Language : Thai

  323. Service kind : Complete Main

  324. Default : No

  325. Forced : No


  326. Audio #15

  327. ID : 16

  328. Format : E-AC-3

  329. Format/Info : Enhanced AC-3

  330. Commercial name : Dolby Digital Plus

  331. Codec ID : A_EAC3

  332. Duration : 1 h 33 min

  333. Bit rate mode : Constant

  334. Bit rate : 640 kb/s

  335. Channel(s) : 6 channels

  336. Channel layout : L R C LFE Ls Rs

  337. Sampling rate : 48.0 kHz

  338. Frame rate : 31.250 FPS (1536 SPF)

  339. Compression mode : Lossy

  340. Stream size : 430 MiB (4%)

  341. Title : Turkish

  342. Language : Turkish

  343. Service kind : Complete Main

  344. Default : No

  345. Forced : No


  346. Text #1

  347. ID : 17

  348. Format : UTF-8

  349. Codec ID : S_TEXT/UTF8

  350. Codec ID/Info : UTF-8 Plain Text

  351. Duration : 1 h 31 min

  352. Bit rate : 61 b/s

  353. Count of elements : 1095

  354. Stream size : 41.5 KiB (0%)

  355. Title : English

  356. Language : English

  357. Default : Yes

  358. Forced : No


  359. Text #2

  360. ID : 18

  361. Format : UTF-8

  362. Codec ID : S_TEXT/UTF8

  363. Codec ID/Info : UTF-8 Plain Text

  364. Duration : 1 h 32 min

  365. Bit rate : 56 b/s

  366. Count of elements : 748

  367. Stream size : 38.4 KiB (0%)

  368. Title : Arabic

  369. Language : Arabic

  370. Default : No

  371. Forced : No


  372. Text #3

  373. ID : 19

  374. Format : UTF-8

  375. Codec ID : S_TEXT/UTF8

  376. Codec ID/Info : UTF-8 Plain Text

  377. Duration : 1 h 32 min

  378. Bit rate : 34 b/s

  379. Count of elements : 736

  380. Stream size : 23.4 KiB (0%)

  381. Title : Chinese Simplified

  382. Language : Chinese

  383. Default : No

  384. Forced : No


  385. Text #4

  386. ID : 20

  387. Format : UTF-8

  388. Codec ID : S_TEXT/UTF8

  389. Codec ID/Info : UTF-8 Plain Text

  390. Duration : 1 h 32 min

  391. Bit rate : 32 b/s

  392. Count of elements : 741

  393. Stream size : 21.9 KiB (0%)

  394. Title : Chinese Traditional

  395. Language : Chinese

  396. Default : No

  397. Forced : No


  398. Text #5

  399. ID : 21

  400. Format : UTF-8

  401. Codec ID : S_TEXT/UTF8

  402. Codec ID/Info : UTF-8 Plain Text

  403. Duration : 1 h 32 min

  404. Bit rate : 28 b/s

  405. Count of elements : 714

  406. Stream size : 19.0 KiB (0%)

  407. Title : Croatian

  408. Language : Croatian

  409. Default : No

  410. Forced : No


  411. Text #6

  412. ID : 22

  413. Format : UTF-8

  414. Codec ID : S_TEXT/UTF8

  415. Codec ID/Info : UTF-8 Plain Text

  416. Duration : 1 h 32 min

  417. Bit rate : 29 b/s

  418. Count of elements : 719

  419. Stream size : 20.3 KiB (0%)

  420. Title : Czech

  421. Language : Czech

  422. Default : No

  423. Forced : No


  424. Text #7

  425. ID : 23

  426. Format : UTF-8

  427. Codec ID : S_TEXT/UTF8

  428. Codec ID/Info : UTF-8 Plain Text

  429. Duration : 1 h 32 min

  430. Bit rate : 29 b/s

  431. Count of elements : 671

  432. Stream size : 20.2 KiB (0%)

  433. Title : Danish

  434. Language : Danish

  435. Default : No

  436. Forced : No


  437. Text #8

  438. ID : 24

  439. Format : UTF-8

  440. Codec ID : S_TEXT/UTF8

  441. Codec ID/Info : UTF-8 Plain Text

  442. Duration : 1 h 32 min

  443. Bit rate : 27 b/s

  444. Count of elements : 637

  445. Stream size : 18.5 KiB (0%)

  446. Title : Dutch

  447. Language : Dutch

  448. Default : No

  449. Forced : No


  450. Text #9

  451. ID : 25

  452. Format : UTF-8

  453. Codec ID : S_TEXT/UTF8

  454. Codec ID/Info : UTF-8 Plain Text

  455. Duration : 1 h 32 min

  456. Bit rate : 28 b/s

  457. Count of elements : 593

  458. Stream size : 19.0 KiB (0%)

  459. Title : Finnish

  460. Language : Finnish

  461. Default : No

  462. Forced : No


  463. Text #10

  464. ID : 26

  465. Format : UTF-8

  466. Codec ID : S_TEXT/UTF8

  467. Codec ID/Info : UTF-8 Plain Text

  468. Duration : 1 h 32 min

  469. Bit rate : 30 b/s

  470. Count of elements : 703

  471. Stream size : 20.9 KiB (0%)

  472. Title : French

  473. Language : French

  474. Default : No

  475. Forced : No


  476. Text #11

  477. ID : 27

  478. Format : UTF-8

  479. Codec ID : S_TEXT/UTF8

  480. Codec ID/Info : UTF-8 Plain Text

  481. Duration : 1 h 32 min

  482. Bit rate : 31 b/s

  483. Count of elements : 706

  484. Stream size : 21.2 KiB (0%)

  485. Title : German

  486. Language : German

  487. Default : No

  488. Forced : No


  489. Text #12

  490. ID : 28

  491. Format : UTF-8

  492. Codec ID : S_TEXT/UTF8

  493. Codec ID/Info : UTF-8 Plain Text

  494. Duration : 1 h 32 min

  495. Bit rate : 49 b/s

  496. Count of elements : 727

  497. Stream size : 33.6 KiB (0%)

  498. Title : Greek

  499. Language : Greek

  500. Default : No

  501. Forced : No


  502. Text #13

  503. ID : 29

  504. Format : UTF-8

  505. Codec ID : S_TEXT/UTF8

  506. Codec ID/Info : UTF-8 Plain Text

  507. Duration : 1 h 32 min

  508. Bit rate : 51 b/s

  509. Count of elements : 737

  510. Stream size : 34.6 KiB (0%)

  511. Title : Hebrew

  512. Language : Hebrew

  513. Default : No

  514. Forced : No


  515. Text #14

  516. ID : 30

  517. Format : UTF-8

  518. Codec ID : S_TEXT/UTF8

  519. Codec ID/Info : UTF-8 Plain Text

  520. Duration : 1 h 32 min

  521. Bit rate : 29 b/s

  522. Count of elements : 722

  523. Stream size : 19.9 KiB (0%)

  524. Title : Hungarian

  525. Language : Hungarian

  526. Default : No

  527. Forced : No


  528. Text #15

  529. ID : 31

  530. Format : UTF-8

  531. Codec ID : S_TEXT/UTF8

  532. Codec ID/Info : UTF-8 Plain Text

  533. Duration : 1 h 32 min

  534. Bit rate : 30 b/s

  535. Count of elements : 759

  536. Stream size : 20.9 KiB (0%)

  537. Title : Indonesian

  538. Language : Indonesian

  539. Default : No

  540. Forced : No


  541. Text #16

  542. ID : 32

  543. Format : UTF-8

  544. Codec ID : S_TEXT/UTF8

  545. Codec ID/Info : UTF-8 Plain Text

  546. Duration : 1 h 32 min

  547. Bit rate : 31 b/s

  548. Count of elements : 679

  549. Stream size : 21.3 KiB (0%)

  550. Title : Italian

  551. Language : Italian

  552. Default : No

  553. Forced : No


  554. Text #17

  555. ID : 33

  556. Format : UTF-8

  557. Codec ID : S_TEXT/UTF8

  558. Codec ID/Info : UTF-8 Plain Text

  559. Duration : 1 h 32 min

  560. Bit rate : 32 b/s

  561. Count of elements : 756

  562. Stream size : 21.8 KiB (0%)

  563. Title : Japanese

  564. Language : Japanese

  565. Default : No

  566. Forced : No


  567. Text #18

  568. ID : 34

  569. Format : UTF-8

  570. Codec ID : S_TEXT/UTF8

  571. Codec ID/Info : UTF-8 Plain Text

  572. Duration : 1 h 32 min

  573. Bit rate : 38 b/s

  574. Count of elements : 746

  575. Stream size : 26.2 KiB (0%)

  576. Title : Korean

  577. Language : Korean

  578. Default : No

  579. Forced : No


  580. Text #19

  581. ID : 35

  582. Format : UTF-8

  583. Codec ID : S_TEXT/UTF8

  584. Codec ID/Info : UTF-8 Plain Text

  585. Duration : 1 h 27 min

  586. Bit rate : 31 b/s

  587. Count of elements : 734

  588. Stream size : 20.3 KiB (0%)

  589. Title : Malay

  590. Language : Malay

  591. Default : No

  592. Forced : No


  593. Text #20

  594. ID : 36

  595. Format : UTF-8

  596. Codec ID : S_TEXT/UTF8

  597. Codec ID/Info : UTF-8 Plain Text

  598. Duration : 1 h 32 min

  599. Bit rate : 27 b/s

  600. Count of elements : 693

  601. Stream size : 18.4 KiB (0%)

  602. Title : Norwegian Bokmal

  603. Language : Norwegian Bokmal

  604. Default : No

  605. Forced : No


  606. Text #21

  607. ID : 37

  608. Format : UTF-8

  609. Codec ID : S_TEXT/UTF8

  610. Codec ID/Info : UTF-8 Plain Text

  611. Duration : 1 h 32 min

  612. Bit rate : 29 b/s

  613. Count of elements : 734

  614. Stream size : 20.1 KiB (0%)

  615. Title : Polish

  616. Language : Polish

  617. Default : No

  618. Forced : No


  619. Text #22

  620. ID : 38

  621. Format : UTF-8

  622. Codec ID : S_TEXT/UTF8

  623. Codec ID/Info : UTF-8 Plain Text

  624. Duration : 1 h 32 min

  625. Bit rate : 30 b/s

  626. Count of elements : 737

  627. Stream size : 20.9 KiB (0%)

  628. Title : Portuguese

  629. Language : Portuguese

  630. Default : No

  631. Forced : No


  632. Text #23

  633. ID : 39

  634. Format : UTF-8

  635. Codec ID : S_TEXT/UTF8

  636. Codec ID/Info : UTF-8 Plain Text

  637. Duration : 1 h 32 min

  638. Bit rate : 30 b/s

  639. Count of elements : 761

  640. Stream size : 20.8 KiB (0%)

  641. Title : Brazilian Portuguese

  642. Language : Portuguese

  643. Default : No

  644. Forced : No


  645. Text #24

  646. ID : 40

  647. Format : UTF-8

  648. Codec ID : S_TEXT/UTF8

  649. Codec ID/Info : UTF-8 Plain Text

  650. Duration : 1 h 32 min

  651. Bit rate : 36 b/s

  652. Count of elements : 716

  653. Stream size : 24.5 KiB (0%)

  654. Title : Romanian

  655. Language : Romanian

  656. Default : No

  657. Forced : No


  658. Text #25

  659. ID : 41

  660. Format : UTF-8

  661. Codec ID : S_TEXT/UTF8

  662. Codec ID/Info : UTF-8 Plain Text

  663. Duration : 1 h 32 min

  664. Bit rate : 47 b/s

  665. Count of elements : 742

  666. Stream size : 32.2 KiB (0%)

  667. Title : Russian

  668. Language : Russian

  669. Default : No

  670. Forced : No


  671. Text #26

  672. ID : 42

  673. Format : UTF-8

  674. Codec ID : S_TEXT/UTF8

  675. Codec ID/Info : UTF-8 Plain Text

  676. Duration : 1 h 32 min

  677. Bit rate : 30 b/s

  678. Count of elements : 764

  679. Stream size : 20.3 KiB (0%)

  680. Title : Spanish

  681. Language : Spanish

  682. Default : No

  683. Forced : No


  684. Text #27

  685. ID : 43

  686. Format : UTF-8

  687. Codec ID : S_TEXT/UTF8

  688. Codec ID/Info : UTF-8 Plain Text

  689. Duration : 1 h 32 min

  690. Bit rate : 28 b/s

  691. Count of elements : 773

  692. Stream size : 19.0 KiB (0%)

  693. Title : European Spanish

  694. Language : Spanish

  695. Default : No

  696. Forced : No


  697. Text #28

  698. ID : 44

  699. Format : UTF-8

  700. Codec ID : S_TEXT/UTF8

  701. Codec ID/Info : UTF-8 Plain Text

  702. Duration : 1 h 32 min

  703. Bit rate : 29 b/s

  704. Count of elements : 661

  705. Stream size : 20.2 KiB (0%)

  706. Title : Swedish

  707. Language : Swedish

  708. Default : No

  709. Forced : No


  710. Text #29

  711. ID : 45

  712. Format : UTF-8

  713. Codec ID : S_TEXT/UTF8

  714. Codec ID/Info : UTF-8 Plain Text

  715. Duration : 1 h 32 min

  716. Bit rate : 81 b/s

  717. Count of elements : 735

  718. Stream size : 55.1 KiB (0%)

  719. Title : Thai

  720. Language : Thai

  721. Default : No

  722. Forced : No


  723. Text #30

  724. ID : 46

  725. Format : UTF-8

  726. Codec ID : S_TEXT/UTF8

  727. Codec ID/Info : UTF-8 Plain Text

  728. Duration : 1 h 32 min

  729. Bit rate : 30 b/s

  730. Count of elements : 742

  731. Stream size : 20.3 KiB (0%)

  732. Title : Turkish

  733. Language : Turkish

  734. Default : No

  735. Forced : No


  736. Text #31

  737. ID : 47

  738. Format : UTF-8

  739. Codec ID : S_TEXT/UTF8

  740. Codec ID/Info : UTF-8 Plain Text

  741. Duration : 1 h 32 min

  742. Bit rate : 47 b/s

  743. Count of elements : 729

  744. Stream size : 32.4 KiB (0%)

  745. Title : Ukrainian

  746. Language : Ukrainian

  747. Default : No

  748. Forced : No


  749. Text #32

  750. ID : 48

  751. Format : UTF-8

  752. Codec ID : S_TEXT/UTF8

  753. Codec ID/Info : UTF-8 Plain Text

  754. Duration : 1 h 32 min

  755. Bit rate : 43 b/s

  756. Count of elements : 730

  757. Stream size : 29.7 KiB (0%)

  758. Title : Vietnamese

  759. Language : Vietnamese

  760. Default : No

  761. Forced : No


文件下载


除非特别注明,本文『魔爪入室[中文字幕].Intrusion.2021.1080p.NF.WEB-DL.DDP5.1.Atmos.x264 10.14GB』来源于互联网机器人自动抓取,非本站原创。 浮游电影网不对本文拥有版权,如有侵犯,请联系邮箱:fuyouu#yandex.com[#换成@]投诉。我们会在15个工作日内删除。 但烦请转载时请标明出处:“本文转载于『浮游电影网』,原文地址:https://www.fuyouu.com/14565.html

评论吧骚年!

发表你的见解   

昵称*

E-mail*(建议输入,以便收到博主回复的提示邮件)

验证码*

您可以使用eMule或eMule Mod(Windows)、aMule(Win、Linux、Mac)等软件下载eD2k链接。。
eMule收藏集(.emulecollection)文件是您选中的所有链接的列表文件。eMule可以直接下载它们。
按住SHIFT键选择可以选中多个选择框。
可用文件名和大小选择器来选择文件。
文件名选择器帮您根据文件名称或后缀来选择文件。不分大小写。
符号使用:
和:空格( )、+
不包含:-
或:|
转义:一对英文引号("");
匹配开头:^
匹配结尾:$
例如:
选中所有名称中包含有“eMule”或“0.49c”字眼,但不包含有“exe”字眼的:emule|0.49c -exe
选中所有名称的开头是“eMule”,结尾是“0.49c”的:^emule 0.49c$
选中所有名称中带有“eMule 0.49c”的(必须是“eMule 0.49c”,中间没有别的字符,不能是“eMule fake 0.49c”),需要转义:"emule 0.49c"
大小选择器帮您根据文件大小选择文件。