当前位置: 首页 >> 欧美电影 >> 通勤营救[中文字幕].The.Commuter.2018.2160p.UHD.BluRay.x265.10bit.HDR.TrueHD.7.1.Atmos 18.62GB >> 正文

通勤营救[中文字幕].The.Commuter.2018.2160p.UHD.BluRay.x265.10bit.HDR.TrueHD.7.1.Atmos 18.62GB

2021年09月25日 10:28:20     电影发布:来源于网络     电影分类:欧美电影     评论(0)    

通勤营救[中文字幕].The.Commuter.2018.2160p.UHD.BluRay.x265.10bit.HDR.TrueHD.7.1.Atmos 18.62GB 犯罪片 惊悚片 动作片 欧美电影  第1张

◎译 名 通勤营救 / 疾速救援(台) / 追命列车(港)

◎片 名 The Commuter

◎年 代 2018

◎产 地 美国 / 英国

◎类 别 动作 / 惊悚 / 犯罪

◎语 言 英语

◎上映日期 2018-03-30(中国大陆) / 2018-01-12(美国)

◎IMDb链接 https://www.imdb.com/title/tt1590193/

◎豆瓣评分 6.5/10 (64042人评价)

◎豆瓣链接 https://movie.douban.com/subject/7056414/

◎片 长 105分钟

◎导 演 佐米·希尔拉 Jaume Collet-Serra (id:1214705)

◎编 剧 拜伦·维林格 Byron Willinger (id:1387213)

菲利普·德·布拉西 Philip de Blasi (id:1387214)

瑞安·恩格尔 Ryan Engle (id:1006515)

◎演 员 连姆·尼森 Liam Neeson (id:1031220)

维拉·法米加 Vera Farmiga (id:1053584)

帕特里克·威尔森 Patrick Wilson (id:1006919)

乔纳森·班克斯 Jonathan Banks (id:1061460)

山姆·尼尔 Sam Neill (id:1049525)

伊丽莎白·麦戈文 Elizabeth McGovern (id:1010588)

基连·斯科特 Killian Scott (id:1360243)

沙扎德·拉蒂夫 Shazad Latif (id:1332334)

安迪·尼曼 Andy Nyman (id:1000299)

克拉拉·拉戈 Clara Lago (id:1032704)

罗兰·默勒 Roland M?ller (id:1334238)

弗洛伦丝·皮尤 Florence Pugh (id:1378921)

迪恩·查尔斯·查普曼 Dean-Charles Chapman (id:1341989)

埃拉-雷·史密斯 Ella-Rae Smith (id:1387215)

妮拉·阿利亚 Nila Aalia (id:1387216)

柯林·麦克法兰 Colin McFarlane (id:1115213)

寇布勒·霍尔德布鲁克-史密斯 Kobna Holdbrook-Smith (id:1346131)

亚当·那加提斯 Adam Nagaitis (id:1348296)

金斯利·本-阿迪尔 Kingsley Ben-Adir (id:1369740)

戴姆森·伊德瑞斯 Damson Idris (id:1377373)

本·卡普兰 Ben Caplan (id:1333343)

利蒂希娅·赖特 Letitia Wright (id:1356810)

杰米·比米什 Jamie Beamish (id:1190547)

斯图尔特·惠兰 Stuart Whelan (id:1392913)

爱德华·布卢梅尔 Edward Bluemel (id:1402703)

阿拉娜·玛丽亚 Alana Maria (id:1418392)

杰米·梅内德斯 Jaime Menéndez (id:1402985)

佐米·希尔拉 Jaume Collet-Serra (id:1214705)

◎标 签 动作 / 悬疑 / 犯罪 / 美国 / 火车 / 2018 / 剧情 / 惊悚

◎简 介

影片将故事设定在一列通勤列车上,一位十年如一日乘坐列车上下班的商界人士麦考利(连姆·尼森 饰),偶遇一位主动搭讪的“神秘乘客”乔安娜(维拉·法米加 饰)。乔安娜为麦考利提供了一个极具诱惑性的任务——找出车上的一位乘客,即可获得一笔巨额现金作为回报。但在寻找的过程中,麦考利逐渐发现自己卷入到一场致命的危险处境中。

他是否能够从这辆“恐怖列车”中成功逃脱,背后又隐藏着怎样的惊天阴谋。随着列车不断加速,真相逐一揭开......

  1. ##### MediaInfo ######

  2. General

  3. Unique ID : 179333460265038126495244543188753282457 (0x86EA5E3CD1484946AD2FE6EF54FD7599)

  4. Complete name : The.Commu[email protected]BBQDDQ.COM.mkv

  5. Format : Matroska

  6. Format version : Version 4

  7. File size : 18.6 GiB

  8. Duration : 1 h 44 min

  9. Overall bit rate mode : Variable

  10. Overall bit rate : 25.4 Mb/s

  11. Movie name : The Commuter 2018

  12. Encoded date : UTC 2021-09-24 03:44:15

  13. Writing application : mkvmerge v61.0.0 ('So') 64-bit

  14. Writing library : libebml v1.4.2 + libmatroska v1.6.4

  15. Cover : Yes

  16. Attachments : cover.jpg


  17. Video

  18. ID : 1

  19. Format : HEVC

  20. Format/Info : High Efficiency Video Coding

  21. Format profile : Main [email protected]@High

  22. HDR format : SMPTE ST 2086, HDR10 compatible

  23. Codec ID : V_MPEGH/ISO/HEVC

  24. Duration : 1 h 44 min

  25. Bit rate : 21.0 Mb/s

  26. Width : 3 840 pixels

  27. Height : 1 604 pixels

  28. Display aspect ratio : 2.40:1

  29. Frame rate mode : Constant

  30. Frame rate : 23.976 (24000/1001/53354) FPS

  31. Color space : YUV

  32. Chroma subsampling : 4:2:0

  33. Bit depth : 10 bits

  34. Bits/(Pixel*Frame) : 0.142

  35. Stream size : 15.4 GiB (83%)

  36. Writing library : x265 3.5+2-g2b25c9ba0+45:[Windows][MSVC 1926][64 bit] Yuuki 10bit+8bit+12bit

  37. Encoding settings : rc=crf / crf=18.0000 / qcomp=0.60 / qpstep=4 / stats-write=0 / stats-read=0 / vbv-maxrate=160000 / vbv-bufsize=160000 / vbv-init=0.9 / min-vbv-fullness=50.0 / max-vbv-fullness=80.0 / crf-max=0.0 / crf-min=0.0 / no-lossless / no-cu-lossless / aq-mode=3 / aq-strength=0.80 / cbqpoffs=0 / crqpoffs=0 / ipratio=1.40 / pbratio=1.30 / psy-rd=2.00 / psy-rdoq=2.00 / deblock=-3:-3 / ref=6 / limit-refs=1 / no-limit-modes / bframes=11 / b-adapt=2 / bframe-bias=0 / b-pyramid / b-intra / weightp / weightb / min-keyint=1 / max-keyint=240 / rc-lookahead=72 / gop-lookahead=0 / NTMzNTQ=uuDQuD2mJt9fsCf / scenecut=40 / hist-scenecut=0 / radl=0 / max-cu-size=64 / min-cu-size=8 / me=3 / subme=6 / merange=48 / rdoq-level=2 / rd=4 / rdpenalty=0 / dynamic-rd=0.00 / no-rd-refine / ----- / no-cutree / no-sao / no-rect / no-amp / no-open-gop / wpp / no-pmode / no-pme / no-psnr / no-ssim / nr-intra=0 / nr-inter=0 / no-constrained-intra / no-strong-intra-smoothing / max-tu-size=32 / tu-inter-depth=4 / tu-intra-depth=4 / limit-tu=0 / qg-size=32 / qpmax=69 / qpmin=0 / ----- / cpuid=533541111039 / frame-threads=4 / numa-pools=+ / log-level=2 / input-csp=1 / input-res=3840x1604 / interlace=0 / level-idc=51 / high-tier=1 / uhd-bd=0 / no-allow-non-conformance / repeat-headers / aud / no-hrd / info / hash=0 / no-temporal-layers / lookahead-slices=0 / no-splice / no-intra-refresh / no-ssim-rd / signhide / no-tskip / max-merge=5 / temporal-mvp / no-frame-dup / no-hme / analyze-src-pics / no-sao-non-deblock / selective-sao=0 / early-skip / rskip / no-fast-intra / no-tskip-fast / no-splitrd-skip / zone-count=0 / no-strict-cbr / no-rc-grain / no-const-vbv / sar=0 / overscan=0 / videoformat=5 / range=0 / colorprim=9 / transfer=16 / colormatrix=9 / chromaloc=0 / display-window=0 / master-display=G(13250,34500)B(7500,3000)R(34000,16000)WP(15635,16450)L(10000000,50) / cll=1000,530 / min-luma=0 / max-luma=1023 / log2-max-poc-lsb=8 / vui-timing-info / vui-hrd-info / slices=1 / no-opt-qp-pps / no-opt-ref-list-length-pps / no-multi-pass-opt-rps / scenecut-bias=0.05 / hist-threshold=0.03 / no-opt-cu-delta-qp / no-aq-motion / hdr10 / hdr10-opt / no-dhdr10-opt / no-idr-recovery-sei / analysis-reuse-level=0 / analysis-save-reuse-level=0 / analysis-load-reuse-level=0 / scale-factor=0 / refine-intra=0 / refine-inter=0 / refine-mv=1 / refine-ctu-distortion=0 / no-limit-sao / ctu-info=0 / no-lowpass-dct / refine-analysis-type=0 / copy-pic=1 / max-ausize-factor=1.0 / no-dynamic-refine / no-single-sei / no-hevc-aq / no-svt / no-field / qp-adaptation-range=1.00 / scenecut-aware-qp=0conformance-window-offsets / right=0 / bottom=0 / NTMzNTQ= / decoder-max-rate=0 / no-vbv-live-multi-pass

  38. Default : Yes

  39. Forced : No

  40. Color range : Limited

  41. Color primaries : BT.2020

  42. Transfer characteristics : PQ

  43. Matrix coefficients : BT.2020 non-constant

  44. Mastering display color primaries : Display P3

  45. Mastering display luminance : min: 0.0050 cd/m2, max: 1000 cd/m2

  46. Maximum Content Light Level : 1000 cd/m2

  47. Maximum Frame-Average Light Level : 530 cd/m2


  48. Audio

  49. ID : 2

  50. ID in the original source medium : 4352 (0x1100)

  51. Format : MLP FBA 16-ch

  52. Format/Info : Meridian Lossless Packing FBA with 16-channel presentation

  53. Commercial name : Dolby TrueHD with Dolby Atmos

  54. Codec ID : A_TRUEHD

  55. Duration : 1 h 44 min

  56. Bit rate mode : Variable

  57. Bit rate : 4 211 kb/s

  58. Maximum bit rate : 7 737 kb/s

  59. Channel(s) : 8 channels

  60. Channel layout : L R C LFE Ls Rs Lb Rb

  61. Sampling rate : 48.0 kHz

  62. Frame rate : 1 200.000 FPS (40 SPF)

  63. Compression mode : Lossless

  64. Stream size : 3.09 GiB (17%)

  65. Language : English

  66. Default : Yes

  67. Forced : No

  68. Original source medium : Blu-ray

  69. Number of dynamic objects : 11

  70. Bed channel count : 1 channel

  71. Bed channel configuration : LFE


  72. Text #1

  73. ID : 3

  74. ID in the original source medium : 4771 (0x12A3)

  75. Format : PGS

  76. Muxing mode : zlib

  77. Codec ID : S_HDMV/PGS

  78. Codec ID/Info : Picture based subtitle format used on BDs/HD-DVDs

  79. Duration : 1 h 37 min

  80. Bit rate : 48.0 kb/s

  81. Count of elements : 1859

  82. Stream size : 33.6 MiB (0%)

  83. Title : chs&eng

  84. Language : Chinese

  85. Default : No

  86. Forced : No

  87. Original source medium : Blu-ray


  88. Text #2

  89. ID : 4

  90. ID in the original source medium : 4772 (0x12A4)

  91. Format : PGS

  92. Muxing mode : zlib

  93. Codec ID : S_HDMV/PGS

  94. Codec ID/Info : Picture based subtitle format used on BDs/HD-DVDs

  95. Duration : 1 h 37 min

  96. Bit rate : 48.4 kb/s

  97. Count of elements : 1859

  98. Stream size : 33.9 MiB (0%)

  99. Title : cht&eng

  100. Language : Chinese

  101. Default : No

  102. Forced : No

  103. Original source medium : Blu-ray


  104. Text #3

  105. ID : 5

  106. ID in the original source medium : 4773 (0x12A5)

  107. Format : PGS

  108. Muxing mode : zlib

  109. Codec ID : S_HDMV/PGS

  110. Codec ID/Info : Picture based subtitle format used on BDs/HD-DVDs

  111. Duration : 1 h 37 min

  112. Bit rate : 29.0 kb/s

  113. Count of elements : 1859

  114. Stream size : 20.3 MiB (0%)

  115. Title : chs

  116. Language : Chinese

  117. Default : No

  118. Forced : No

  119. Original source medium : Blu-ray


  120. Text #4

  121. ID : 6

  122. ID in the original source medium : 4774 (0x12A6)

  123. Format : PGS

  124. Muxing mode : zlib

  125. Codec ID : S_HDMV/PGS

  126. Codec ID/Info : Picture based subtitle format used on BDs/HD-DVDs

  127. Duration : 1 h 37 min

  128. Bit rate : 29.4 kb/s

  129. Count of elements : 1859

  130. Stream size : 20.6 MiB (0%)

  131. Title : cht

  132. Language : Chinese

  133. Default : No

  134. Forced : No

  135. Original source medium : Blu-ray


  136. Text #5

  137. ID : 7

  138. ID in the original source medium : 4768 (0x12A0)

  139. Format : PGS

  140. Muxing mode : zlib

  141. Codec ID : S_HDMV/PGS

  142. Codec ID/Info : Picture based subtitle format used on BDs/HD-DVDs

  143. Duration : 1 h 37 min

  144. Bit rate : 43.6 kb/s

  145. Count of elements : 2640

  146. Stream size : 30.5 MiB (0%)

  147. Language : English

  148. Default : No

  149. Forced : No

  150. Original source medium : Blu-ray


  151. Menu

  152. 00:00:00.000 : Chapter 01

  153. 00:05:38.254 : Chapter 02

  154. 00:12:23.492 : Chapter 03

  155. 00:16:54.471 : Chapter 04

  156. 00:25:36.117 : Chapter 05

  157. 00:32:20.855 : Chapter 06

  158. 00:41:37.953 : Chapter 07

  159. 00:44:38.217 : Chapter 08

  160. 00:52:38.989 : Chapter 09

  161. 00:59:30.650 : Chapter 10

  162. 01:04:50.845 : Chapter 11

  163. 01:11:53.517 : Chapter 12

  164. 01:20:23.318 : Chapter 13

  165. 01:25:23.159 : Chapter 14

  166. 01:30:45.648 : Chapter 15

  167. 01:37:26.340 : Chapter 16


文件下载


除非特别注明,本文『通勤营救[中文字幕].The.Commuter.2018.2160p.UHD.BluRay.x265.10bit.HDR.TrueHD.7.1.Atmos 18.62GB』来源于互联网机器人自动抓取,非本站原创。 浮游电影网不对本文拥有版权,如有侵犯,请联系邮箱:fuyouu#yandex.com[#换成@]投诉。我们会在15个工作日内删除。 但烦请转载时请标明出处:“本文转载于『浮游电影网』,原文地址:https://www.fuyouu.com/14562.html

评论吧骚年!

发表你的见解   

昵称*

E-mail*(建议输入,以便收到博主回复的提示邮件)

验证码*

您可以使用eMule或eMule Mod(Windows)、aMule(Win、Linux、Mac)等软件下载eD2k链接。。
eMule收藏集(.emulecollection)文件是您选中的所有链接的列表文件。eMule可以直接下载它们。
按住SHIFT键选择可以选中多个选择框。
可用文件名和大小选择器来选择文件。
文件名选择器帮您根据文件名称或后缀来选择文件。不分大小写。
符号使用:
和:空格( )、+
不包含:-
或:|
转义:一对英文引号("");
匹配开头:^
匹配结尾:$
例如:
选中所有名称中包含有“eMule”或“0.49c”字眼,但不包含有“exe”字眼的:emule|0.49c -exe
选中所有名称的开头是“eMule”,结尾是“0.49c”的:^emule 0.49c$
选中所有名称中带有“eMule 0.49c”的(必须是“eMule 0.49c”,中间没有别的字符,不能是“eMule fake 0.49c”),需要转义:"emule 0.49c"
大小选择器帮您根据文件大小选择文件。