当前位置: 首页 >> 海外电影 >> 陨落[中文字幕].Falling.2020.1080p.BluRay.x265.10bit.DTS 5.03GB >> 正文

陨落[中文字幕].Falling.2020.1080p.BluRay.x265.10bit.DTS 5.03GB

2021年09月25日 10:24:41     电影发布:来源于网络     电影分类:海外电影     评论(0)    

陨落[中文字幕].Falling.2020.1080p.BluRay.x265.10bit.DTS 5.03GB 同性 剧情片 海外电影  第1张

◎译 名 陨落 / 坠落 / 亲情解锁(台)

◎片 名 Falling

◎年 代 2020

◎产 地 加拿大 / 英国 / 美国

◎类 别 剧情 / 同性

◎语 言 英语 / 西班牙语

◎上映日期 2020-01-31(圣丹斯电影节) / 2021-02-05(美国)

◎IMDb链接 https://www.imdb.com/title/tt9143112/

◎豆瓣评分 7.4/10 (800人评价)

◎豆瓣链接 https://movie.douban.com/subject/30351926/

◎片 长 112分钟

◎导 演 维果·莫腾森 Viggo Mortensen (id:1054520)

◎编 剧 维果·莫腾森 Viggo Mortensen (id:1054520)

◎演 员 维果·莫腾森 Viggo Mortensen (id:1054520)

兰斯·亨利克森 Lance Henriksen (id:1048140)

斯瓦利尔·古德纳松 Sverrir Gudnason (id:1050003)

劳拉·琳妮 Laura Linney (id:1053572)

亨利·莫腾森 Henry Mortensen (id:1127967)

大卫·柯南伯格 David Cronenberg (id:1054396)

汉娜·格罗斯 Hannah Gross (id:1259304)

特瑞·陈 Terry Chen (id:1004684)

波·马婷 Bo Martyn (id:1394228)

马克斯韦尔·麦卡比-洛克斯 Maxwell McCabe-Lokos (id:1333878)

◎标 签 ViggoMortensen / 家庭 / 维果·莫腾森 / 加拿大 / 2020 / 剧情 / LGBT / 美国

◎简 介

外人眼中顽固、老朽、暴躁、恐同、把爱和好意推开的父亲,尽力与他相处的儿子。看起来是一个纠结、熟悉和让人鼻酸的故事。

维果也是该片编剧&主演,影片聚焦”一个儿子与老去的父亲的关系,是一个私人的故事”:John(莫滕森)与自己的同性伴侣Eric和养女Monica一起生活在南加州,一次,他退休了的农民父亲Willis(兰斯·亨利克森)找上门来,要跟儿子住一段时间,父亲那更为传统、家庭化的世界与儿子的世界产生了碰撞。

◎获奖情况 (共4项)

第73届戛纳电影节 (2020)

新长片导演作品(提名)

第33届欧洲电影奖 (2020)

最佳男主角(提名)

└──维果·莫腾森 (id:1054520)

第35届西班牙戈雅奖 (2021)

最佳欧洲电影(提名)

第45届多伦多国际电影节 (2020)

最佳加拿大电影(提名)

└──维果·莫腾森 (id:1054520)

  1. ##### MediaInfo ######

  2. General

  3. Unique ID : 240701999765354011993777404438312503319 (0xB51584D6C644415BA7C778B04631C817)

  4. Complete name : [email protected]

  5. Format : Matroska

  6. Format version : Version 4

  7. File size : 5.03 GiB

  8. Duration : 1 h 52 min

  9. Overall bit rate : 6 384 kb/s

  10. Movie name : BLU-RAY

  11. Encoded date : UTC 2021-09-24 04:07:37

  12. Writing application : mkvmerge v61.0.0 ('So') 64-bit

  13. Writing library : libebml v1.4.2 + libmatroska v1.6.4

  14. Cover : Yes

  15. Attachments : cover.jpg


  16. Video

  17. ID : 1

  18. Format : HEVC

  19. Format/Info : High Efficiency Video Coding

  20. Format profile : Main [email protected]@Main

  21. Codec ID : V_MPEGH/ISO/HEVC

  22. Duration : 1 h 52 min

  23. Bit rate : 4 813 kb/s

  24. Width : 1 920 pixels

  25. Height : 804 pixels

  26. Display aspect ratio : 2.40:1

  27. Frame rate mode : Constant

  28. Frame rate : 23.976 (24000/1001/53354) FPS

  29. Color space : YUV

  30. Chroma subsampling : 4:2:0

  31. Bit depth : 10 bits

  32. Bits/(Pixel*Frame) : 0.130

  33. Stream size : 3.79 GiB (75%)

  34. Writing library : x265 3.5+2-g2b25c9ba0+45:[Windows][GCC 10.2.0][64 bit] Yuuki 10bit+8bit+12bit

  35. Encoding settings : rc=crf / crf=19.0000 / qcomp=0.60 / qpstep=4 / stats-write=0 / stats-read=0 / no-lossless / no-cu-lossless / aq-mode=3 / aq-strength=0.90 / cbqpoffs=0 / crqpoffs=0 / ipratio=1.40 / pbratio=1.30 / psy-rd=2.00 / psy-rdoq=0.00 / deblock=0:0 / ref=6 / limit-refs=1 / no-limit-modes / bframes=8 / b-adapt=2 / bframe-bias=0 / b-pyramid / b-intra / weightp / weightb / min-keyint=24 / max-keyint=240 / rc-lookahead=24 / gop-lookahead=0 / NTMzNTQ=uuDQuD2mJt9fsCf / scenecut=40 / hist-scenecut=0 / radl=0 / max-cu-size=64 / min-cu-size=8 / me=3 / subme=7 / merange=48 / rdoq-level=0 / rd=4 / rdpenalty=0 / dynamic-rd=0.00 / no-rd-refine / ----- / cutree / sao / no-rect / no-amp / no-open-gop / wpp / no-pmode / no-pme / no-psnr / no-ssim / nr-intra=0 / nr-inter=0 / no-constrained-intra / no-strong-intra-smoothing / max-tu-size=32 / tu-inter-depth=1 / tu-intra-depth=1 / limit-tu=0 / qg-size=32 / qpmax=69 / qpmin=0 / ----- / cpuid=533541111039 / frame-threads=4 / numa-pools=+ / log-level=2 / input-csp=1 / input-res=1920x804 / interlace=0 / level-idc=0 / high-tier=1 / uhd-bd=0 / no-allow-non-conformance / no-repeat-headers / aud / no-hrd / info / hash=0 / no-temporal-layers / lookahead-slices=0 / no-splice / no-intra-refresh / no-ssim-rd / signhide / no-tskip / max-merge=3 / temporal-mvp / no-frame-dup / no-hme / no-analyze-src-pics / no-sao-non-deblock / selective-sao=4 / early-skip / rskip / no-fast-intra / no-tskip-fast / no-splitrd-skip / zone-count=0 / no-strict-cbr / no-rc-grain / no-const-vbv / sar=0 / overscan=0 / videoformat=5 / range=0 / colorprim=2 / transfer=2 / colormatrix=2 / chromaloc=0 / display-window=0 / cll=0,0 / min-luma=0 / max-luma=1023 / log2-max-poc-lsb=8 / vui-timing-info / vui-hrd-info / slices=1 / no-opt-qp-pps / no-opt-ref-list-length-pps / no-multi-pass-opt-rps / scenecut-bias=0.05 / hist-threshold=0.03 / no-opt-cu-delta-qp / no-aq-motion / no-hdr10 / no-hdr10-opt / no-dhdr10-opt / no-idr-recovery-sei / analysis-reuse-level=0 / analysis-save-reuse-level=0 / analysis-load-reuse-level=0 / scale-factor=0 / refine-intra=0 / refine-inter=0 / refine-mv=1 / refine-ctu-distortion=0 / no-limit-sao / ctu-info=0 / no-lowpass-dct / refine-analysis-type=0 / copy-pic=1 / max-ausize-factor=1.0 / no-dynamic-refine / no-single-sei / no-hevc-aq / no-svt / no-field / qp-adaptation-range=1.00 / scenecut-aware-qp=0conformance-window-offsets / right=0 / bottom=0 / NTMzNTQ= / decoder-max-rate=0 / no-vbv-live-multi-pass

  36. Default : Yes

  37. Forced : No


  38. Audio

  39. ID : 2

  40. ID in the original source medium : 4353 (0x1101)

  41. Format : DTS

  42. Format/Info : Digital Theater Systems

  43. Codec ID : A_DTS

  44. Duration : 1 h 52 min

  45. Bit rate mode : Constant

  46. Bit rate : 1 509 kb/s

  47. Channel(s) : 6 channels

  48. Channel layout : C L R Ls Rs LFE

  49. Sampling rate : 48.0 kHz

  50. Frame rate : 93.750 FPS (512 SPF)

  51. Bit depth : 24 bits

  52. Compression mode : Lossy

  53. Stream size : 1.19 GiB (24%)

  54. Language : English

  55. Default : Yes

  56. Forced : No

  57. Original source medium : Blu-ray


  58. Text #1

  59. ID : 3

  60. ID in the original source medium : 4611 (0x1203)

  61. Format : PGS

  62. Muxing mode : zlib

  63. Codec ID : S_HDMV/PGS

  64. Codec ID/Info : Picture based subtitle format used on BDs/HD-DVDs

  65. Duration : 1 h 43 min

  66. Bit rate : 42.6 kb/s

  67. Count of elements : 2212

  68. Stream size : 31.7 MiB (1%)

  69. Title : chs&eng

  70. Language : Chinese

  71. Default : Yes

  72. Forced : No

  73. Original source medium : Blu-ray


  74. Text #2

  75. ID : 4

  76. ID in the original source medium : 4612 (0x1204)

  77. Format : PGS

  78. Muxing mode : zlib

  79. Codec ID : S_HDMV/PGS

  80. Codec ID/Info : Picture based subtitle format used on BDs/HD-DVDs

  81. Duration : 1 h 43 min

  82. Bit rate : 43.5 kb/s

  83. Count of elements : 2212

  84. Stream size : 32.3 MiB (1%)

  85. Title : cht&eng

  86. Language : Chinese

  87. Default : No

  88. Forced : No

  89. Original source medium : Blu-ray


  90. Text #3

  91. ID : 5

  92. ID in the original source medium : 4613 (0x1205)

  93. Format : PGS

  94. Muxing mode : zlib

  95. Codec ID : S_HDMV/PGS

  96. Codec ID/Info : Picture based subtitle format used on BDs/HD-DVDs

  97. Duration : 1 h 43 min

  98. Bit rate : 24.3 kb/s

  99. Count of elements : 2212

  100. Stream size : 18.1 MiB (0%)

  101. Title : chs

  102. Language : Chinese

  103. Default : No

  104. Forced : No

  105. Original source medium : Blu-ray


  106. Text #4

  107. ID : 6

  108. ID in the original source medium : 4614 (0x1206)

  109. Format : PGS

  110. Muxing mode : zlib

  111. Codec ID : S_HDMV/PGS

  112. Codec ID/Info : Picture based subtitle format used on BDs/HD-DVDs

  113. Duration : 1 h 43 min

  114. Bit rate : 25.2 kb/s

  115. Count of elements : 2212

  116. Stream size : 18.7 MiB (0%)

  117. Title : cht

  118. Language : Chinese

  119. Default : No

  120. Forced : No

  121. Original source medium : Blu-ray


  122. Menu

  123. 00:00:00.000 : 第 01 章

  124. 00:11:34.485 : 第 02 章

  125. 00:21:34.668 : 第 03 章

  126. 00:29:11.791 : 第 04 章

  127. 00:36:50.166 : 第 05 章

  128. 00:45:42.197 : 第 06 章

  129. 00:56:07.238 : 第 07 章

  130. 01:10:30.017 : 第 08 章

  131. 01:16:55.944 : 第 09 章

  132. 01:27:23.279 : 第 10 章

  133. 01:35:51.036 : 第 11 章

  134. 01:46:08.653 : 第 12 章


文件下载


除非特别注明,本文『陨落[中文字幕].Falling.2020.1080p.BluRay.x265.10bit.DTS 5.03GB』来源于互联网机器人自动抓取,非本站原创。 浮游电影网不对本文拥有版权,如有侵犯,请联系邮箱:fuyouu#yandex.com[#换成@]投诉。我们会在15个工作日内删除。 但烦请转载时请标明出处:“本文转载于『浮游电影网』,原文地址:https://www.fuyouu.com/14559.html

评论吧骚年!

发表你的见解   

昵称*

E-mail*(建议输入,以便收到博主回复的提示邮件)

验证码*

您可以使用eMule或eMule Mod(Windows)、aMule(Win、Linux、Mac)等软件下载eD2k链接。。
eMule收藏集(.emulecollection)文件是您选中的所有链接的列表文件。eMule可以直接下载它们。
按住SHIFT键选择可以选中多个选择框。
可用文件名和大小选择器来选择文件。
文件名选择器帮您根据文件名称或后缀来选择文件。不分大小写。
符号使用:
和:空格( )、+
不包含:-
或:|
转义:一对英文引号("");
匹配开头:^
匹配结尾:$
例如:
选中所有名称中包含有“eMule”或“0.49c”字眼,但不包含有“exe”字眼的:emule|0.49c -exe
选中所有名称的开头是“eMule”,结尾是“0.49c”的:^emule 0.49c$
选中所有名称中带有“eMule 0.49c”的(必须是“eMule 0.49c”,中间没有别的字符,不能是“eMule fake 0.49c”),需要转义:"emule 0.49c"
大小选择器帮您根据文件大小选择文件。